Ссылка на приватное зеркало нашего сайта всего за 1$. Внимание количество ограничено!!!

2 сезон

iTunes

1 сезон

1

2 сезон

2 сезон

iTunes

1 сезон

RePack

30

Ultimate

ВАЖНО

ИГРА 18+

pack

RePack

MK11
pack

Забери бонус

RePack

jed

!!Акция!!

Alien_Rage

RePack

fifa19

RePack

Assassins Creed: Odyssey

RePack

NEED FOR SPEED™ PAYBACK

4 сезон

9 сезон

Бесстыжие 9 сезон

Все сериалы

все сериалы на PB.wtf

RePack

FAR CRY 5
  

Любовь кусается / Love Bites / Сезон 1 / Серии 01-08 из 08 (Марк Баклэнд, Джон Скотт, Джеми Бэббит) [2011 г., комедия, HDTVRip] - DVO pb.wtf

Любовь кусается через торрент pb.wtf

Размер: 3.08 GB | Добавлен: 2 года 4 мес. назад | Торрент скачан:6 раз
Скачать  

12-07-2018 08:50 Любовь кусается Скачать торрент  

Любовь кусается / Love BitesГод выпуска: 2011
Страна: США
Жанр: комедия
Продолжительность: 8 x ~ 00:43:00
Перевод: Любительский двухголосый (Tomas&Minami)
Субтитры: русские (на песенку) - отдельным файлом

Режиссер: Марк Баклэнд, Джон Скотт, Джеми Бэббит
В ролях: Беки Ньютон, Грег Гранберг, Констанс Зиммер, Джеймс МакДональд, Гильермо Диас, Мэтт Лонг, Джессика Ст. Клэр, Стив Тэлли, Мишель Трахтенберг, Брэт Харрисон

rating

Описание: Они — две последние холостячки среди своих друзей. Анна энергичная заразительная оптимистка, а Франни реалистка, смирившаяся с ролью вечной подруги невесты. Их истории будут основой сериала, а другие персонажи, у которых нелады на любовном фронте, будут появляться (и уходить) каждую неделю.

Качество: HDTVRip
Формат: AVI
Видео кодек: XviD
Аудио кодек: MP3
Видео: 624x352 (16:9), 23.976 fps ~ 1000 Kbps
Аудио#1: 48 KHz 2 ch ~ 128 Kb/s (русский)
Аудио#2: 48 KHz 2 ch ~ 128 Kb/s (английский)
Общее
Полное имя : Q:\TorF\Love Bites\Love.Bites.S01E01.HDTVRip.Tomas&minami.avi
Формат : AVI
Формат/Информация : Audio Video Interleave
Размер файла : 391 Мбайт
Продолжительность : 43 м.
Режим общего битрейта : Переменный
Общий поток : 1261 Кбит/сек
Программа кодирования : VirtualDubMod 1.5.10.2 (build 2542/release)
Библиотека кодирования : VirtualDubMod build 2542/release

Видео
Идентификатор : 0
Формат : MPEG-4 Visual
Профиль формата : Advanced Simple@L5
Параметр BVOP формата : 2
Параметр QPel формата : Нет
Параметр GMC формата : Без точки перехода
Параметр матрицы формата : Default (H.263)
Идентификатор кодека : XVID
Идентификатор кодека/Подсказка : XviD
Продолжительность : 43 м.
Битрейт : 951 Кбит/сек
Ширина : 624 пикселя
Высота : 352 пикселя
Соотношение сторон : 16:9
Частота кадров : 23,976 кадра/сек
Цветовое пространство : YUV
Субдискретизация насыщенности : 4:2:0
Битовая глубина : 8 бит
Тип развёртки : Прогрессивная
Метод сжатия : С потерями
Бит/(Пиксели*Кадры) : 0.181
Размер потока : 295 Мбайт (75%)
Библиотека кодирования : XviD 1.2.1 (UTC 2008-12-04)

Аудио #1
Идентификатор : 1
Формат : MPEG Audio
Версия формата : Version 1
Профиль формата : Layer 3
Режим : Joint stereo
Расширение режима : MS Stereo
Идентификатор кодека : 55
Идентификатор кодека/Подсказка : MP3
Продолжительность : 43 м.
Вид битрейта : Постоянный
Битрейт : 128 Кбит/сек
Каналы : 2 канала
Частота : 48,0 КГц
Метод сжатия : С потерями
Размер потока : 39,7 Мбайт (10%)
Выравнивание : Соединение по промежуткам
Продолжительность промежутка : 42 мс. (1,00 видеокадр)
Время предзагрузки промежутка : 504 мс.

Аудио #2
Идентификатор : 2
Формат : MPEG Audio
Версия формата : Version 1
Профиль формата : Layer 3
Режим : Joint stereo
Расширение режима : MS Stereo
Идентификатор кодека : 55
Идентификатор кодека/Подсказка : MP3
Продолжительность : 43 м.
Вид битрейта : Переменный
Битрейт : 160 Кбит/сек
Каналы : 2 канала
Частота : 48,0 КГц
Метод сжатия : С потерями
Размер потока : 51,1 Мбайт (13%)
Выравнивание : Соединение по промежуткам
Продолжительность промежутка : 24 мс. (0,58 видеокадр)
Время предзагрузки промежутка : 660 мс.
Библиотека кодирования : LAME3.90.
Настройки программы : -m j -V 4 -q 2 -lowpass 18 --abr 160

pb.wtf



Скачать Любовь кусается через торрент http://pic.kartinco.top/images/11/gg7b6.jpg Скачать фильм Любовь кусается через торрент бесплантно в хорошем качестве Описание: Они — две последние холостячки среди своих друзей. Анна энергичная заразительная оптимистка, а Франни реалистка, смирившаяся с ... 10 10 1
Info! Золотая раздача, скачанное не засчитывается.
Торрент: Зарегистрирован [2018-07-12 08:50] · скачан: 6 раз
Статус: √ проверено
Размер: 3.08 GB
Как cкачать? Как скачать Любовь кусается через торрент | qTorrent

28-11-2019 20:33  

Отключить всю рекламу на сайте

    Дорогой пользователь! Огромная просьба, поблагодарите релизера, оцените раздачу и оставьте свои комментарий, если Вы скачали Любовь кусается через торрент бесплатно! Внесите свою лепту в развитие PiratBit!
    Комментировать посты могут только пользователи прошедшие не сложную регистрацию
    Показать сообщения:    

    Любовь кусается через торрент
    Скачать бесплатно Любовь кусается
    Любовь кусается скачать торрент
    Любовь кусается смотреть онлайн
    Cкачать фильм Любовь кусается бесплатно
    Любовь кусается скачать торрент в хорошем качестве
    Любовь кусается смотреть онлайн бесплатно в хорошем качестве


    Вы не можете начинать темы
    Вы не можете отвечать на сообщения
    Вы не можете редактировать свои сообщения
    Вы не можете удалять свои сообщения
    Вы не можете голосовать в опросах
    Вы не можете прикреплять файлы к сообщениям
    Вы можете скачивать файлы