2 сезон

iTunes

1 сезон

1

iTunes

iTunes

iTunes

1 сезон

RePack

30

ИГРА 18+

pack

ВАЖНО

!!Акция!!

Alien_RageХит недели

RePack

MK11
pack

Забери бонус

RePack

jed

!!Акция!!

Alien_Rage

RePack

fifa19

RePack

Assassins Creed: Odyssey

RePack

NEED FOR SPEED™ PAYBACK

4 сезон

9 сезон

Бесстыжие 9 сезон

Все сериалы

все сериалы на PB.wtf

RePack

FAR CRY 5
  

Смерть Супермена / The Death of Superman (Джейк Касторена, Сэм Лью) [2018, мультфильм, фантастика, боевик, WEB-DLRip] MVO [HDrezka Studio] pb.wtf

Смерть Супермена через торрент pb.wtf

Раздают: 1 [ 0 KB/s ]
Размер: 1.36 GB | Добавлен: 2 года 3 мес. назад | Торрент скачан:334 раза
Скачать  

12-07-2018 10:18 Смерть Супермена Скачать торрент  

Смерть Супермена / The Death of Superman
Год выпуска: 2018
Страна: США
Жанр: мультфильм, фантастика, боевик
Продолжительность: 01:20:54
Перевод: Профессиональный (многоголосый) | HDRezka Studio
Субтитры: отсутствуют

Режиссер: Джейк Касторена, Сэм Лью

rating

В ролях:

Джерри О’Коннелл, Ребекка Ромейн, Рэйн Уилсон, Розарио Доусон, Нэйтан Филлион, Кристофер Горам, Мэтт Лантер, Шемар Мур

Описание:

Кларк Кент подумывает о том, чтобы раскрыть возлюбленной Лоис Лэйн свой самый большой секрет - что он является Суперменом. В это же время на Землю прибывает страшное чудовище Думсдэй, обладающее невероятной силой и злобой. Все супергерои в составе Лиги справедливости с трудом сдерживают монстра, поэтому Супермену придётся отложить свои личные дела и постараться помочь товарищам победить врага...

Качество: WEB-DLRip
Формат: AVI

Видео: 720x400 (16:9), 23.976 fps, XviD ~2 031 kbps avg
Аудио: 48.0 kHz, AC3 Dolby Digital, 2/0 (L,R) ch, ~192 kbps
скриншот  скриншот  скриншот  скриншот  скриншот  

General
Format : AVI
Format/Info : Audio Video Interleave
File size : 1.36 GiB
Duration : 1h 20mn
Overall bit rate : 2 410 Kbps
Writing application : VirtualDubMod 1.5.10.3 | (build 2550/release)
Writing library : VirtualDubMod build 2550/release

Video
ID : 0
Format : MPEG-4 Visual
Format profile : Advanced Simple@L5
Format settings, BVOP : 2
Format settings, QPel : No
Format settings, GMC : No warppoints
Format settings, Matrix : Custom
Codec ID : XVID
Codec ID/Hint : XviD
Duration : 1h 20mn
Source duration : 35mn 20s
Bit rate : 2 031 Kbps
Width : 720 pixels
Height : 400 pixels
Display aspect ratio : 16:9
Frame rate : 23.976 fps
Color space : YUV
Chroma subsampling : 4:2:0
Bit depth : 8 bits
Scan type : Progressive
Compression mode : Lossy
Bits/(Pixel*Frame) : 0.294
Stream size : 513 MiB (37%)
Writing library : XviD 1.2.1 (UTC 2008-12-04)

Audio
ID : 1
Format : AC-3
Format/Info : Audio Coding 3
Mode extension : CM (complete main)
Format settings, Endianness : Big
Codec ID : 2000
Duration : 1h 20mn
Source duration : 35mn 20s
Bit rate mode : Constant
Bit rate : 192 Kbps
Channel(s) : 2 channels
Channel positions : Front: L R
Sampling rate : 48.0 KHz
Compression mode : Lossy
Stream size : 48.5 MiB (3%)
Alignment : Split accross interleaves
Interleave, duration : 42 ms (1.00 video frame)
Interleave, preload duration : 500 ms

pb.wtf



Скачать Смерть Супермена через торрент http://i104.fastpic.ru/big/2018/0702/27/ca1b6fe59b1a4e47d6f17bffe4ff7327.jpg Скачать фильм Смерть Супермена через торрент бесплантно в хорошем качестве Описание: Кларк Кент подумывает о том, чтобы раскрыть возлюбленной Лоис Лэйн свой самый большой секрет - что он является Суперменом. В это ... 10 10 8
Торрент: Зарегистрирован [2018-07-12 10:18] · скачан: 334 раз
Статус: T временная
Размер: 1.36 GB
Как cкачать? Как скачать Смерть Супермена через торрент | qTorrent

% Раздел Тема Автор DL S | L
Ultra HD (UHD: 2K, 4K, 8K) [ 7.11 GB ] Смерть Супермена / The Death of Superman [2018 мультфильм UHD BDRip 2160p] 3xMVO + DVO sheker187 Скачать
1 | 0
Ultra HD (UHD: 2K, 4K, 8K) [ 44.77 GB ] Смерть Супермена / The Death of Superman [2018 мультфильм UHD BDRemux 2160p] 3xMVO + DVO sheker187 Скачать
1 | 0
T Зарубежные Мультфильмы (BDRip 1080p, 720p, Blu-ray, BD-Remux) [ 9.81 GB ] Смерть Супермена / The Death of Superman [2018 мультфильм BD Remux 1080p] MVO [HDrezka Studio] bober100 Скачать
1 | 0
T Зарубежные Мультфильмы (WEB-DL 720p, 1080p) [ 3.24 GB ] Смерть Супермена / The Death of Superman [2018 мультфильм WEB-DL 1080p] MVO [HDrezka Studio] bober100 Скачать
2 | 1
T Фильмы без перевода [ 3.13 GB ] Смерть Супермена / The Death of Superman [2018 Анимация Экшн Научная WEB-DL 1080p] [Sub Rus] killermax2013 Скачать
1 | 0

28-11-2019 20:33  

Отключить всю рекламу на сайте

    Дорогой пользователь! Огромная просьба, поблагодарите релизера, оцените раздачу и оставьте свои комментарий, если Вы скачали Смерть Супермена через торрент бесплатно! Внесите свою лепту в развитие PiratBit!
    Комментировать посты могут только пользователи прошедшие не сложную регистрацию
    Показать сообщения:    

    Смерть Супермена через торрент
    Скачать бесплатно Смерть Супермена
    Смерть Супермена скачать торрент
    Смерть Супермена смотреть онлайн
    Cкачать фильм Смерть Супермена бесплатно
    Смерть Супермена скачать торрент в хорошем качестве
    Смерть Супермена смотреть онлайн бесплатно в хорошем качестве


    Вы не можете начинать темы
    Вы не можете отвечать на сообщения
    Вы не можете редактировать свои сообщения
    Вы не можете удалять свои сообщения
    Вы не можете голосовать в опросах
    Вы не можете прикреплять файлы к сообщениям
    Вы можете скачивать файлы