Marvel's Avengers Deluxe Edition (супер цена) 159р. Внимание количество ограничено!!!

2 сезон

iTunes

iTunes

1

iTunes

iTunes

iTunes

WEBRip

iTunes

30
pack

Новость дня

ВАЖНО

!!Акция!!

Alien_RageХит недели

RePack

Horizon Zero Dawn

ИГРА 18+

pack

RePack

jed

!!Акция!!

Alien_Rage

RePack

fifa19

RePack

Assassins Creed: Odyssey

RePack

NEED FOR SPEED™ PAYBACK

4 сезон

9 сезон

Бесстыжие 9 сезон

Все сериалы

все сериалы на PB.wtf

RePack

FAR CRY 5
  

Девочки на льду / Ice Girls (Дэмиан Ли) [2016, комедия, WEB-DL 720p] MVO ["Синема УС"] pb.wtf

Девочки на льду через торрент pb.wtf

Размер: 3.18 GB | Добавлен: 2 года 2 мес. назад | Торрент скачан:7 раз
Скачать  

12-07-2018 16:24 Девочки на льду Скачать торрент  

Девочки на льду / Ice GirlsГод выпуска: 2016
Страна: Канада
Жанр: комедия
Продолжительность: 01:33:01
Перевод: Любительский (многоголосый) | "Синема УС"
Субтитры: отсутствуют

Режиссер: Дэмиан Ли

rating

В ролях:

Мичаела Ду Туит, Лара Даанс, Аркадия Ли, Шила МакКарти, Наташа Хенстридж, Тейлор Хунсли, Шейн Харт, Элвис Стойко, Сэнди Джобин-Биванс, Джери Холл

Описание:

Мэтти Дэйн, подающая надежды юная фигуристка повреждает колено как раз перед соревнованиями. Сможет ли она восстановиться и пройти на отборочные, когда лучшая подруга - первая конкурентка?

Качество: WEB-DL 720p
Формат: MKV

Видео: h.264, 4 506 kb/s, 1280x720
Аудио#1: Русский, (AC3, 2 ch, 384 Кбит/с)
скриншот  скриншот  скриншот  

Общее
Уникальный идентификатор : 210204795698272656411536846222064305591 (0x9E23F896A95136728979205C04B345B7)
Полное имя : D:\Ice.Girls.2016.P.WEB-DL.72Op_KOSHARA.mkv
Формат : Matroska
Версия формата : Version 2
Размер файла : 3,18 Гбайт
Продолжительность : 1 ч. 33 м.
Режим общего битрейта : Переменный
Общий поток : 4892 Кбит/сек
Дата кодирования : UTC 2018-07-08 14:05:56
Программа кодирования : mkvmerge v8.3.0 ('Over the Horizon') 64bit
Библиотека кодирования : libebml v1.3.1 + libmatroska v1.4.2

Видео
Идентификатор : 1
Формат : AVC
Формат/Информация : Advanced Video Codec
Профиль формата : High@L4.1
Параметр CABAC формата : Да
Параметр RefFrames формата : 4 кадра
Идентификатор кодека : V_MPEG4/ISO/AVC
Продолжительность : 1 ч. 33 м.
Вид битрейта : Переменный
Битрейт : 4506 Кбит/сек
Максимальный битрейт : 5000 Кбит/сек
Ширина : 1280 пикселей
Высота : 720 пикселей
Соотношение сторон : 16:9
Режим частоты кадров : Постоянный
Частота кадров : 23,976 (24000/1001) кадра/сек
Стандарт вещания : Component
Цветовое пространство : YUV
Субдискретизация насыщенности : 4:2:0
Битовая глубина : 8 бит
Тип развёртки : Прогрессивная
Бит/(Пиксели*Кадры) : 0.200
Размер потока : 2,87 Гбайт (90%)
Default : Да
Forced : Нет
Цветовой диапазон : Limited
Основные цвета : BT.709
Характеристики трансфера : BT.709
Коэффициенты матрицы : BT.709

Аудио
Идентификатор : 2
Формат : AC-3
Формат/Информация : Audio Coding 3
Расширение режима : CM (complete main)
Параметр Endianness формата : Big
Идентификатор кодека : A_AC3
Продолжительность : 1 ч. 33 м.
Вид битрейта : Постоянный
Битрейт : 384 Кбит/сек
Каналы : 2 канала
Расположение каналов : Front: L R
Частота : 48,0 КГц
Частота кадров : 31,250 кадров/сек (1536 spf)
Метод сжатия : С потерями
Размер потока : 256 Мбайт (8%)
Default : Да
Forced : Нет

pb.wtf



Скачать Девочки на льду через торрент https://img11.lostpic.net/2018/07/12/17dde4b10660bb54c51b43b6db085c84.jpg Скачать фильм Девочки на льду через торрент бесплантно в хорошем качестве Описание: Мэтти Дэйн, подающая надежды юная фигуристка повреждает колено как раз перед соревнованиями. Сможет ли она восстановиться и ... 10 10 2
Торрент: Зарегистрирован [2018-07-12 16:24] · скачан: 7 раз
Статус: T временная
Размер: 3.18 GB
Как cкачать? Как скачать Девочки на льду через торрент | qTorrent

% Раздел Тема Автор DL S | L
T Фильмы (мультфильмы) cо спонсором показа (Новинки AVI/MKV) [ 1.37 GB ] Девочки на льду / Ice Girls [2016 WEB-DLRip] MVO ["Синема УС"] bober100 Скачать
1 | 0

28-11-2019 20:33  

Отключить всю рекламу на сайте

    Дорогой пользователь! Огромная просьба, поблагодарите релизера, оцените раздачу и оставьте свои комментарий, если Вы скачали Девочки на льду через торрент бесплатно! Внесите свою лепту в развитие PiratBit!
    Комментировать посты могут только пользователи прошедшие не сложную регистрацию
    Показать сообщения:    

    Девочки на льду через торрент
    Скачать бесплатно Девочки на льду
    Девочки на льду скачать торрент
    Девочки на льду смотреть онлайн
    Cкачать фильм Девочки на льду бесплатно
    Девочки на льду скачать торрент в хорошем качестве
    Девочки на льду смотреть онлайн бесплатно в хорошем качестве


    Вы не можете начинать темы
    Вы не можете отвечать на сообщения
    Вы не можете редактировать свои сообщения
    Вы не можете удалять свои сообщения
    Вы не можете голосовать в опросах
    Вы не можете прикреплять файлы к сообщениям
    Вы можете скачивать файлы