Ссылка на приватное зеркало всего за 1$. Внимание количество ограничено!!!

OK

1+1

iTunes

мы

OK

1

WEB-DLRip

Джокер

Пифагор

Ведьмак / The Witcher сериал

Лицензия

ПШазам

ОК

Оно 2

iTunes

30
pack

Вам бонус

ВАЖНО

!!Акция!!

Alien_RageХит недели

RePack

Resident Evil 21

ИГРА 18+

pack

RePack

jed

!!Акция!!

Alien_Rage

RePack

fifa19

RePack

Assassins Creed: Odyssey

RePack

NEED FOR SPEED™ PAYBACK

4 сезон

9 сезон

Бесстыжие 9 сезон

Все сериалы

все сериалы на PB.wtf

RePack

FAR CRY 5
  

Я не сумасшедшая / No Estoy Loca (Николас Лопес) [2018, Драма, комедия, WEB-DL 720p] MVO ["Синема УС"] pb.wtf

Я не сумасшедшая через торрент pb.wtf

Размер: 3.99 GB | Добавлен: 1 год 6 мес. назад | Торрент скачан:12 раз
Скачать  

12-07-2018 16:53 Я не сумасшедшая Скачать торрент  

Я не сумасшедшая / No Estoy LocaГод выпуска: 2018
Страна: Чили
Жанр: Драма, комедия
Продолжительность: 01:58:13
Перевод: Любительский (многоголосый) | "Синема УС"
Субтитры: отсутствуют

Режиссер: Николас Лопес

rating

В ролях:

Пас Баскуньян, Марсиаль Тагле, Антония Сехерс, Каролина Полсен, Габриела Эрнандес, Фернанда Уррехола, Луис Пабло Роман, Жозефина Цистернас, Элисон Мэндел, Ариэль Леви

Описание:

Каролине только что исполнилось 38 лет. В один и тот же день на неё сваливаются два ужасных известия: выясняется, что она абсолютно бесплодна, а муж ушёл к лучшей подруге, с которой они ждут ребёнка. Вернувшись в пустой дом, из которого супруг вывез всю мебель, Каролина выпивает бутылку вина, поднимается на крышу и падает вниз...

Качество: WEB-DL 720p
Формат: MKV

Видео: h.264, 4 441 kb/s, 1280x536
Аудио#1: Русский, (AC3, 2 ch, 384 Кбит/с)
скриншот  скриншот  скриншот  

Общее
Уникальный идентификатор : 250977476842343932739873080094274360196 (0xBCD080F926A75F4C87145BC1CADC1384)
Полное имя : D:\No.estoy.loca.2018.P.WEB-DL.72Op_KOSHARA.mkv
Формат : Matroska
Версия формата : Version 2
Размер файла : 3,99 Гбайт
Продолжительность : 1 ч. 58 м.
Режим общего битрейта : Переменный
Общий поток : 4826 Кбит/сек
Дата кодирования : UTC 2018-07-08 11:45:08
Программа кодирования : mkvmerge v8.3.0 ('Over the Horizon') 64bit
Библиотека кодирования : libebml v1.3.1 + libmatroska v1.4.2

Видео
Идентификатор : 1
Формат : AVC
Формат/Информация : Advanced Video Codec
Профиль формата : High@L4.1
Параметр CABAC формата : Да
Параметр RefFrames формата : 4 кадра
Идентификатор кодека : V_MPEG4/ISO/AVC
Продолжительность : 1 ч. 58 м.
Вид битрейта : Переменный
Битрейт : 4441 Кбит/сек
Максимальный битрейт : 5000 Кбит/сек
Ширина : 1280 пикселей
Высота : 536 пикселей
Соотношение сторон : 2,40:1
Режим частоты кадров : Постоянный
Частота кадров : 23,976 (24000/1001) кадра/сек
Стандарт вещания : Component
Цветовое пространство : YUV
Субдискретизация насыщенности : 4:2:0
Битовая глубина : 8 бит
Тип развёртки : Прогрессивная
Бит/(Пиксели*Кадры) : 0.264
Размер потока : 3,59 Гбайт (90%)
Default : Да
Forced : Нет
Цветовой диапазон : Limited
Основные цвета : BT.709
Характеристики трансфера : BT.709
Коэффициенты матрицы : BT.709

Аудио
Идентификатор : 2
Формат : AC-3
Формат/Информация : Audio Coding 3
Расширение режима : CM (complete main)
Параметр Endianness формата : Big
Идентификатор кодека : A_AC3
Продолжительность : 1 ч. 58 м.
Вид битрейта : Постоянный
Битрейт : 384 Кбит/сек
Каналы : 2 канала
Расположение каналов : Front: L R
Частота : 48,0 КГц
Частота кадров : 31,250 кадров/сек (1536 spf)
Метод сжатия : С потерями
Размер потока : 325 Мбайт (8%)
Default : Да
Forced : Нет

pb.wtf



Скачать Я не сумасшедшая через торрент https://img11.lostpic.net/2018/07/12/13cc90a4f2182617cffe3811eb4f44b4.jpg Скачать фильм Я не сумасшедшая через торрент бесплантно в хорошем качестве Описание: Каролине только что исполнилось 38 лет. В один и тот же день на неё сваливаются два ужасных известия: выясняется, что она ... 10 10 2
Торрент: Зарегистрирован [2018-07-12 16:53] · скачан: 12 раз
Статус: T временная
Размер: 3.99 GB
Как cкачать? Как скачать Я не сумасшедшая через торрент | qTorrent

% Раздел Тема Автор DL S | L
T Фильмы (мультфильмы) cо спонсором показа (Новинки AVI/MKV) [ 2.05 GB ] Я не сумасшедшая / No Estoy Loca [2018 WEB-DLRip] MVO ["Синема УС"] bober100 Скачать
1 | 0
T Фильмы (мультфильмы) cо спонсором показа (Новинки AVI/MKV) [ 1.37 GB ] Я не сумасшедшая / No Estoy Loca [2018 WEB-DLRip] MVO ["Синема УС"] bober100 Скачать
1 | 0

28-11-2019 20:33  

Отключить всю рекламу на сайте

    Дорогой пользователь! Огромная просьба, поблагодарите релизера, оцените раздачу и оставьте свои комментарий, если Вы скачали Я не сумасшедшая через торрент бесплатно! Внесите свою лепту в развитие PiratBit!
    Комментировать посты могут только пользователи прошедшие не сложную регистрацию
    Показать сообщения:    

    Я не сумасшедшая через торрент
    Скачать бесплатно Я не сумасшедшая
    Я не сумасшедшая скачать торрент
    Я не сумасшедшая смотреть онлайн
    Cкачать фильм Я не сумасшедшая бесплатно
    Я не сумасшедшая скачать торрент в хорошем качестве
    Я не сумасшедшая смотреть онлайн бесплатно в хорошем качестве


    Вы не можете начинать темы
    Вы не можете отвечать на сообщения
    Вы не можете редактировать свои сообщения
    Вы не можете удалять свои сообщения
    Вы не можете голосовать в опросах
    Вы не можете прикреплять файлы к сообщениям
    Вы можете скачивать файлы