Ссылка на приватное зеркало всего за 1$. Внимание количество ограничено!!!

OK

1+1

iTunes

мы

OK

1

WEB-DLRip

Джокер

Пифагор

Ведьмак / The Witcher сериал

iTunes

ПШазам

ОК

Оно 2

iTunes

30
pack

Вам бонус

ВАЖНО

!!Акция!!

Alien_RageХит недели

RePack

Resident Evil 21

ИГРА 18+

pack

RePack

jed

RePack

fifa19

RePack

Assassins Creed: Odyssey

RePack

NEED FOR SPEED™ PAYBACK

4 сезон

9 сезон

Бесстыжие 9 сезон

Все сериалы

все сериалы на PB.wtf

RePack

FAR CRY 5
  

Ноктем / Noctem (Маркос Кабота) [2017, Ужасы, триллер, детектив, WEB-DL 720p] MVO ["Синема УС"] pb.wtf

Ноктем через торрент pb.wtf

Размер: 3.12 GB | Добавлен: 1 год 6 мес. назад | Торрент скачан:29 раз
Скачать  

12-07-2018 17:40 Ноктем Скачать торрент  

Ноктем / NoctemГод выпуска: 2017
Страна: Испания, Мексика
Жанр: Ужасы, триллер, детектив
Продолжительность: 01:34:03
Перевод: Любительский (многоголосый) | "Синема УС"
Субтитры: отсутствуют

Режиссер: Маркос Кабота

rating

В ролях:

Эрнесто Аларкон, Рэкуэл Арройо, Мария Белтран, Альмудена Касадо, Герман Конде, Неус Кортес, Марина Фернандес, Ирэн Феррадас, Жауме Фустер, Мерсе Гарсия Допико

Описание:

Адриан и Эстебан пропали больше года назад. Полиция бессильна, несмотря на найденные вещи на острове Косумель, в 15 километрах от Ривьеры Майя. Друг пропавших, Алекс, находит их телефоны, при помощи которых начинает собственное расследование. В итоге он понимает, что правда куда более страшна, чем он мог себе представить.

Качество: WEB-DL 720p
Формат: MKV

Видео: h.264, 4 358 kb/s, 1280x532
Аудио#1: Русский, (AC3, 2 ch, 384 Кбит/с)
скриншот  скриншот  скриншот  

Общее
Уникальный идентификатор : 207410869543743117043749132619782220204 (0x9C09E164D0B58B12AF825EBF87B2E9AC)
Полное имя : D:\Noctem.2017.P.WEB-DL.72Op_KOSHARA.mkv
Формат : Matroska
Версия формата : Version 2
Размер файла : 3,12 Гбайт
Продолжительность : 1 ч. 34 м.
Режим общего битрейта : Переменный
Общий поток : 4744 Кбит/сек
Дата кодирования : UTC 2018-07-08 01:16:33
Программа кодирования : mkvmerge v8.3.0 ('Over the Horizon') 64bit
Библиотека кодирования : libebml v1.3.1 + libmatroska v1.4.2

Видео
Идентификатор : 1
Формат : AVC
Формат/Информация : Advanced Video Codec
Профиль формата : High@L4.1
Параметр CABAC формата : Да
Параметр RefFrames формата : 4 кадра
Идентификатор кодека : V_MPEG4/ISO/AVC
Продолжительность : 1 ч. 34 м.
Вид битрейта : Переменный
Битрейт : 4358 Кбит/сек
Максимальный битрейт : 5000 Кбит/сек
Ширина : 1280 пикселей
Высота : 532 пикселя
Соотношение сторон : 2,40:1
Режим частоты кадров : Постоянный
Частота кадров : 23,976 (24000/1001) кадра/сек
Стандарт вещания : Component
Цветовое пространство : YUV
Субдискретизация насыщенности : 4:2:0
Битовая глубина : 8 бит
Тип развёртки : Прогрессивная
Бит/(Пиксели*Кадры) : 0.261
Размер потока : 2,80 Гбайт (90%)
Default : Да
Forced : Нет
Цветовой диапазон : Limited
Основные цвета : BT.709
Характеристики трансфера : BT.709
Коэффициенты матрицы : BT.709

Аудио
Идентификатор : 2
Формат : AC-3
Формат/Информация : Audio Coding 3
Расширение режима : CM (complete main)
Параметр Endianness формата : Big
Идентификатор кодека : A_AC3
Продолжительность : 1 ч. 34 м.
Вид битрейта : Постоянный
Битрейт : 384 Кбит/сек
Каналы : 2 канала
Расположение каналов : Front: L R
Частота : 48,0 КГц
Частота кадров : 31,250 кадров/сек (1536 spf)
Метод сжатия : С потерями
Размер потока : 258 Мбайт (8%)
Default : Да
Forced : Нет

pb.wtf



Скачать Ноктем через торрент https://img11.lostpic.net/2018/07/12/f09239efd0557ea9559db26ddb692227.jpg Скачать фильм Ноктем через торрент бесплантно в хорошем качестве Описание: Адриан и Эстебан пропали больше года назад. Полиция бессильна, несмотря на найденные вещи на острове Косумель, в 15 километрах от ... 10 10 2
Торрент: Зарегистрирован [2018-07-12 17:40] · скачан: 29 раз
Статус: T временная
Размер: 3.12 GB
Как cкачать? Как скачать Ноктем через торрент | qTorrent

% Раздел Тема Автор DL S | L
T Фильмы (мультфильмы) cо спонсором показа (Новинки AVI/MKV) [ 1.37 GB ] Ноктем / Noctem [2017 WEB-DLRip] MVO ["Синема УС"] bober100 Скачать
1 | 0

28-11-2019 20:33  

Отключить всю рекламу на сайте

    Дорогой пользователь! Огромная просьба, поблагодарите релизера, оцените раздачу и оставьте свои комментарий, если Вы скачали Ноктем через торрент бесплатно! Внесите свою лепту в развитие PiratBit!
    Комментировать посты могут только пользователи прошедшие не сложную регистрацию
    Показать сообщения:    

    Ноктем через торрент
    Скачать бесплатно Ноктем
    Ноктем скачать торрент
    Ноктем смотреть онлайн
    Cкачать фильм Ноктем бесплатно
    Ноктем скачать торрент в хорошем качестве
    Ноктем смотреть онлайн бесплатно в хорошем качестве


    Вы не можете начинать темы
    Вы не можете отвечать на сообщения
    Вы не можете редактировать свои сообщения
    Вы не можете удалять свои сообщения
    Вы не можете голосовать в опросах
    Вы не можете прикреплять файлы к сообщениям
    Вы можете скачивать файлы