Ссылка на приватное зеркало всего за 1$. Внимание количество ограничено!!!

OK

1+1

iTunes

мы

OK

1

WEB-DLRip

Джокер

Пифагор

Ведьмак / The Witcher сериал

iTunes

ПШазам

ОК

Оно 2

iTunes

30
pack

Вам бонус

ВАЖНО

!!Акция!!

Alien_RageХит недели

RePack

Resident Evil 21

ИГРА 18+

pack

RePack

jed

RePack

fifa19

RePack

Assassins Creed: Odyssey

RePack

NEED FOR SPEED™ PAYBACK

4 сезон

9 сезон

Бесстыжие 9 сезон

Все сериалы

все сериалы на PB.wtf

RePack

FAR CRY 5
  

Король Пекина / King of Peking / Jing Cheng Zhi Wang (Сэм Вутас) [2017, драма, комедия, WEB-DL 720p] MVO ["Синема УС"] pb.wtf

Король Пекина через торрент pb.wtf

Размер: 2.98 GB | Добавлен: 1 год 6 мес. назад | Торрент скачан:13 раз
Скачать  

12-07-2018 18:02 Король Пекина Скачать торрент  

Король Пекина / King of Peking / Jing Cheng Zhi WangГод выпуска: 2017
Страна: Китай, США, Австралия
Жанр: драма, комедия
Продолжительность: 01:29:53
Перевод: Любительский (многоголосый) | "Синема УС"
Субтитры: отсутствуют

Режиссер: Сэм Вутас

rating

В ролях:

Чжао Цзюнь, Ван Найсюнь, Цин Хань, Си Чао, Гэн Бовэнь, Лонг Йи, Чжоу Минь, Йи Цинь, Фань Чансинь, Цао Синьминь

Описание:

Китай, 90 годы прошлого столетия, переживающий политику реформ и открытости. Именно в это время у населения формируется огромный интерес ко всему новому, в том числе и к кино. На этой волне киномеханик "Большой Ван" разъезжает на своем трехколесном мотоцикле вместе со своим сыном по небольшим населенным пунктам и зарабатывает деньга, используя личный кинопроект. Но случается трагедия и кинопроект сгорает, чтобы иметь средства главный герой устраивается дворником в городском театре. Однако эта зарплата не идет ни в какое сравнение с прежним заработком. Тогда Большой Ван с помощью сына запускает собственную пиратскую студию.

Качество: WEB-DL 720p
Формат: MKV

Видео: h.264, 4 353 kb/s, 1280x720
Аудио: Русский, (AC3, 2 ch, 384 Кбит/с)
скриншот  скриншот  скриншот  

Общее
Уникальный идентификатор : 215256902670322552142766355647122652322 (0xA1F0F8B18780DE078BCFF8CEAAD43CA2)
Полное имя : D:\King.of.Peking.2018.P.WEB-DL.72Op_KOSHARA.mkv
Формат : Matroska
Версия формата : Version 2
Размер файла : 2,98 Гбайт
Продолжительность : 1 ч. 29 м.
Режим общего битрейта : Переменный
Общий поток : 4738 Кбит/сек
Дата кодирования : UTC 2018-07-08 01:13:06
Программа кодирования : mkvmerge v8.3.0 ('Over the Horizon') 64bit
Библиотека кодирования : libebml v1.3.1 + libmatroska v1.4.2

Видео
Идентификатор : 1
Формат : AVC
Формат/Информация : Advanced Video Codec
Профиль формата : High@L4.1
Параметр CABAC формата : Да
Параметр RefFrames формата : 4 кадра
Идентификатор кодека : V_MPEG4/ISO/AVC
Продолжительность : 1 ч. 29 м.
Вид битрейта : Переменный
Битрейт : 4353 Кбит/сек
Максимальный битрейт : 5000 Кбит/сек
Ширина : 1280 пикселей
Высота : 720 пикселей
Соотношение сторон : 16:9
Режим частоты кадров : Постоянный
Частота кадров : 23,976 (24000/1001) кадра/сек
Стандарт вещания : Component
Цветовое пространство : YUV
Субдискретизация насыщенности : 4:2:0
Битовая глубина : 8 бит
Тип развёртки : Прогрессивная
Бит/(Пиксели*Кадры) : 0.193
Размер потока : 2,67 Гбайт (90%)
Default : Да
Forced : Нет
Цветовой диапазон : Limited
Основные цвета : BT.709
Характеристики трансфера : BT.709
Коэффициенты матрицы : BT.709

Аудио
Идентификатор : 2
Формат : AC-3
Формат/Информация : Audio Coding 3
Расширение режима : CM (complete main)
Параметр Endianness формата : Big
Идентификатор кодека : A_AC3
Продолжительность : 1 ч. 29 м.
Вид битрейта : Постоянный
Битрейт : 384 Кбит/сек
Каналы : 2 канала
Расположение каналов : Front: L R
Частота : 48,0 КГц
Частота кадров : 31,250 кадров/сек (1536 spf)
Метод сжатия : С потерями
Размер потока : 247 Мбайт (8%)
Default : Да
Forced : Нет

pb.wtf



Скачать Король Пекина через торрент https://img11.lostpic.net/2018/07/12/685c718c60001f2296dd01a02ef430a8.jpg Скачать фильм Король Пекина через торрент бесплантно в хорошем качестве Описание: , 90 годы прошлого столетия, переживающий политику реформ и открытости. Именно в это время у населения формируется огромный ... 10 10 2
Торрент: Зарегистрирован [2018-07-12 18:02] · скачан: 13 раз
Статус: T временная
Размер: 2.98 GB
Как cкачать? Как скачать Король Пекина через торрент | qTorrent

% Раздел Тема Автор DL S | L
T Фильмы (мультфильмы) cо спонсором показа (Новинки AVI/MKV) [ 1.37 GB ] Король Пекина / King of Peking / Jing Cheng Zhi Wang [2017 WEB-DLRip] MVO ["Синема УС"] bober100 Скачать
1 | 0

28-11-2019 20:33  

Отключить всю рекламу на сайте

    Дорогой пользователь! Огромная просьба, поблагодарите релизера, оцените раздачу и оставьте свои комментарий, если Вы скачали Король Пекина через торрент бесплатно! Внесите свою лепту в развитие PiratBit!
    Комментировать посты могут только пользователи прошедшие не сложную регистрацию
    Показать сообщения:    

    Король Пекина через торрент
    Скачать бесплатно Король Пекина
    Король Пекина скачать торрент
    Король Пекина смотреть онлайн
    Cкачать фильм Король Пекина бесплатно
    Король Пекина скачать торрент в хорошем качестве
    Король Пекина смотреть онлайн бесплатно в хорошем качестве


    Вы не можете начинать темы
    Вы не можете отвечать на сообщения
    Вы не можете редактировать свои сообщения
    Вы не можете удалять свои сообщения
    Вы не можете голосовать в опросах
    Вы не можете прикреплять файлы к сообщениям
    Вы можете скачивать файлы