Ссылка на приватное зеркало нашего сайта всего за 1$. Внимание количество ограничено!!!

2 сезон

iTunes

1 сезон

1

2 сезон

2 сезон

iTunes

1 сезон

RePack

30

Новинка

ВАЖНО

ИГРА 18+

pack

RePack

MK11
pack

Забери бонус

RePack

jed

!!Акция!!

Alien_Rage

RePack

fifa19

RePack

Assassins Creed: Odyssey

RePack

NEED FOR SPEED™ PAYBACK

4 сезон

9 сезон

Бесстыжие 9 сезон

Все сериалы

все сериалы на PB.wtf

RePack

FAR CRY 5
  

Второй шанс / Second Chance / Сезон: 1 / Серии: 1-11 из 11 (Сара Пиа Андерсон, Адам Кэйн, Майкл Куэста) [2016, фантастика, боевик, WEB-DLRip] MVO [NewStudio] pb.wtf

Второй шанс через торрент pb.wtf

Размер: 5.76 GB | Добавлен: 2 года 4 мес. назад | Торрент скачан:58 раз
Скачать  

12-07-2018 20:43 Второй шанс Скачать торрент  

Второй шанс / Second Chance
Информация о фильме:

Название: Второй шанс
Оригинальное название: Second Chance
Год выпуска: 2016
Страна: США
Жанр: фантастика, боевик
Продолжительность: ~ 00:45:00 серия
Перевод: Профессиональный многоголосый |
Субтитры: отсутствуют

Режиссер: Сара Пиа Андерсон, Адам Кэйн, Майкл Куэста

rating

В ролях:

Роберт Казински, Адхир Кальян, Тим ДиКей, Дилшад Вадсариа, Филип Бейкер Холл, Сиэра Браво, Хезер Д. Бенуа и др.

Описание:

Когда 75-летнего шерифа убивают, он обретает шанс на новую жизнь. Учёные возвращают его в мир живых — он становится своеобразной версией Франкенштейна, получившей сверхсилу и вернувшей молодость. Теперь главному герою этой истории предстоит разобраться в том, по какой причине и кто именно его убил.



Информация о файле:

Качество: WEB-DLRip
Формат: AVI

Видео: ~ 1500 kbps, 720x400, 23.976 fps
Аудио#1 RU: mp3, 48.0 KHz, 2 ch, 128 kbps
Аудио#2 EN: mp3, 48.0 KHz, 2 ch, 128 kbps
скриншот  скриншот  скриншот  скриншот  

Общее
Полное имя : D:\Second Chance (Season 01) NewStudio\Second.Chance.s01e01.WEBDLRip.NewStudio.avi
Формат : AVI
Формат/Информация : Audio Video Interleave
Размер файла : 551 Мбайт
Продолжительность : 45 м. 25 с.
Общий поток : 1695 Кбит/сек
Программа кодирования : VirtualDubMod 1.5.10.3 | www.virtualdub-fr.org || (build 2550/release)
Библиотека кодирования : VirtualDubMod build 2550/release

Видео
Идентификатор : 0
Формат : MPEG-4 Visual
Профиль формата : Advanced Simple@L5
Параметр BVOP формата : 2
Параметр QPel формата : Нет
Параметр GMC формата : Без точки перехода
Параметр матрицы формата : Default (MPEG)
Идентификатор кодека : XVID
Идентификатор кодека/Подсказка : XviD
Продолжительность : 45 м. 25 с.
Битрейт : 1425 Кбит/сек
Ширина : 720 пикселей
Высота : 400 пикселей
Соотношение сторон : 16:9
Частота кадров : 23,976 (23976/1000) кадра/сек
Цветовое пространство : YUV
Субдискретизация насыщенности : 4:2:0
Битовая глубина : 8 бит
Тип развёртки : Прогрессивная
Метод сжатия : С потерями
Бит/(Пиксели*Кадры) : 0.206
Размер потока : 463 Мбайт (84%)
Библиотека кодирования : XviD 73

Аудио #1
Идентификатор : 1
Формат : MPEG Audio
Версия формата : Version 1
Профиль формата : Layer 3
Режим : Joint stereo
Расширение режима : MS Stereo
Идентификатор кодека : 55
Идентификатор кодека/Подсказка : MP3
Продолжительность : 45 м. 25 с.
Вид битрейта : Постоянный
Битрейт : 128 Кбит/сек
Каналы : 2 канала
Частота : 48,0 КГц
Метод сжатия : С потерями
Размер потока : 41,6 Мбайт (8%)
Выравнивание : Соединение по промежуткам
Продолжительность промежутка : 42 мс. (1,00 видеокадр)
Время предзагрузки промежутка : 504 мс.

Аудио #2
Идентификатор : 2
Формат : MPEG Audio
Версия формата : Version 1
Профиль формата : Layer 3
Режим : Joint stereo
Расширение режима : MS Stereo
Идентификатор кодека : 55
Идентификатор кодека/Подсказка : MP3
Продолжительность : 45 м. 25 с.
Вид битрейта : Постоянный
Битрейт : 128 Кбит/сек
Каналы : 2 канала
Частота : 48,0 КГц
Метод сжатия : С потерями
Размер потока : 41,6 Мбайт (8%)
Выравнивание : Соединение по промежуткам
Продолжительность промежутка : 42 мс. (1,00 видеокадр)
Время предзагрузки промежутка : 504 мс.

pb.wtf



Скачать Второй шанс через торрент https://img11.lostpic.net/2018/07/12/3e91c123b7fc220df0c5d2a4f0b48aca.png Скачать фильм Второй шанс через торрент бесплантно в хорошем качестве Описание: Когда 75-летнего шерифа убивают, он обретает шанс на новую жизнь. Учёные возвращают его в мир живых — он становится своеобразной ... 9.7 10 3
Торрент: Зарегистрирован [2018-07-12 20:43] · скачан: 58 раз
Статус: √ проверено
Размер: 5.76 GB
Как cкачать? Как скачать Второй шанс через торрент | qTorrent

% Раздел Тема Автор DL S | L
Зарубежные сериалы [ 16.24 GB ] Второй шанс / Second Chance / Сезон: 1 / Серии: 1-11 из 11 [2016 WEB-DL 720p] MVO [NewStudio] bober100 Скачать
1 | 0
Зарубежные сериалы [ 9.7 GB ] Второй шанс / Second Chance / Сезон: 1 / Серия 1-11 из 11 [2016 WEB-DLRip-AVC] MVO [BaibaKo] GEKADOL Скачать
1 | 0

28-11-2019 20:33  

Отключить всю рекламу на сайте

    Дорогой пользователь! Огромная просьба, поблагодарите релизера, оцените раздачу и оставьте свои комментарий, если Вы скачали Второй шанс через торрент бесплатно! Внесите свою лепту в развитие PiratBit!
    Комментировать посты могут только пользователи прошедшие не сложную регистрацию
    Показать сообщения:    

    Второй шанс через торрент
    Скачать бесплатно Второй шанс
    Второй шанс скачать торрент
    Второй шанс смотреть онлайн
    Cкачать фильм Второй шанс бесплатно
    Второй шанс скачать торрент в хорошем качестве
    Второй шанс смотреть онлайн бесплатно в хорошем качестве


    Вы не можете начинать темы
    Вы не можете отвечать на сообщения
    Вы не можете редактировать свои сообщения
    Вы не можете удалять свои сообщения
    Вы не можете голосовать в опросах
    Вы не можете прикреплять файлы к сообщениям
    Вы можете скачивать файлы