Ссылка на приватное зеркало всего за 1$. Внимание количество ограничено!!!

OK

1+1

iTunes

мы

OK

1

WEB-DLRip

Джокер

Пифагор

Ведьмак / The Witcher сериал

iTunes

ПШазам

ОК

Оно 2

iTunes

30
pack

Вам бонус

ВАЖНО

!!Акция!!

Alien_RageХит недели

RePack

Resident Evil 21

ИГРА 18+

pack

RePack

jed

RePack

fifa19

RePack

Assassins Creed: Odyssey

RePack

NEED FOR SPEED™ PAYBACK

4 сезон

9 сезон

Бесстыжие 9 сезон

Все сериалы

все сериалы на PB.wtf

RePack

FAR CRY 5
  

С любовью, Саймон / Love, Simon (Грег Берланти) [2018, драма, мелодрама, комедия, BD Remux 1080p] 2xMVO [HDRezka Studio, iTunes] pb.wtf

С любовью, Саймон через торрент pb.wtf

Размер: 27.25 GB | Добавлен: 1 год 6 мес. назад | Торрент скачан:0 раз
Скачать  

13-07-2018 01:44 С любовью, Саймон Скачать торрент  

С любовью, Саймон / Love, Simon
Год выпуска: 2018
Страна: США
Жанр: драма, мелодрама, комедия
Продолжительность: 01:49:43
Перевод:

#1: Профессиональный многоголосый | iTunes
#2: Профессиональный многоголосый | HDRezka Studio

Субтитры: Русские, английские, украинские, румынские

Режиссер: Грег Берланти

rating

В ролях:

Ник Дж. Робинсон, Дженнифер Гарнер, Джош Дюамель, Кэтрин Лэнгфорд, Александра Шипп, Логан Миллер, Кейнан Лонсдейл, Хорхе Лендеборг мл., Талита Бейтман, Тони Хейл

Описание:

Старшеклассник Саймон скрывает от друзей свою гомосексуальность, но его переписка с анонимным возлюбленным попадает в чужие руки. Школьный «клоун» Мартин угрожает разоблачить Саймона, если тот не поможет ему завязать роман с местной красавицей.

Качество: BD Remux 1080p
Формат: MKV

Видео: MPEG-4 AVC, 1920x1080, 31.2 Mbit/s, 23.976 fps
Аудио#1: 48 kHz, AC3, 5.1, 384 Kbps | iTunes | RUS |
Аудио#2: 48 kHz, AC3, 2.0, 192 Kbps | HDRezka Studio | RUS |
Аудио#3: 48 kHz, AC3, 2.0, 192 Kbps | iTunes | UKR |
Аудио#4: 48 kHz, DTS-HD MA, 6 ch, 3623 Kbps | Оригинал | ENG |
скриншот   скриншот   скриншот  

General
Unique ID : 231711198198260117318822154818600672070 (0xAE51F418F7E8CE6D9FB3F3E2BA699B46)
Complete name : F:\Love.Simon.2018.1080p.BluRayRemux.Rus.Ukr.Eng-DONNA.mkv
Format : Matroska
Format version : Version 4 / Version 2
File size : 27.2 GiB
Duration : 1 h 49 min
Overall bit rate mode : Variable
Overall bit rate : 35.6 Mb/s
Movie name : Love, Simon (2018) - Release by DONNA
Encoded date : UTC 2018-07-12 16:19:43
Writing application : mkvmerge v7.1.0 ('Good Love') 32bit built on Jul 27 2014 12:59:18
Writing library : libebml v1.3.0 + libmatroska v1.4.1
Cover : Yes
Attachments : small_cover.jpg / small_cover_land.jpg / cover.jpg / cover_land.jpg

Video
ID : 1
Format : AVC
Format/Info : Advanced Video Codec
Format profile : High@L4.1
Format settings : CABAC / 2 Ref Frames
Format settings, CABAC : Yes
Format settings, RefFrames : 2 frames
Codec ID : V_MPEG4/ISO/AVC
Duration : 1 h 49 min
Bit rate mode : Variable
Bit rate : 31.2 Mb/s
Width : 1 920 pixels
Height : 1 080 pixels
Display aspect ratio : 16:9
Frame rate mode : Constant
Frame rate : 23.976 (24000/1001) FPS
Color space : YUV
Chroma subsampling : 4:2:0
Bit depth : 8 bits
Scan type : Progressive
Bits/(Pixel*Frame) : 0.627
Stream size : 23.9 GiB (88%)
Language : English
Default : Yes
Forced : No

Audio #1
ID : 2
Format : AC-3
Format/Info : Audio Coding 3
Codec ID : A_AC3
Duration : 1 h 49 min
Bit rate mode : Constant
Bit rate : 384 kb/s
Channel(s) : 6 channels
Channel positions : Front: L C R, Side: L R, LFE
Sampling rate : 48.0 kHz
Frame rate : 31.250 FPS (1536 SPF)
Bit depth : 16 bits
Compression mode : Lossy
Stream size : 301 MiB (1%)
Title : iTunes
Language : Russian
Service kind : Complete Main
Default : Yes
Forced : No

Audio #2
ID : 3
Format : AC-3
Format/Info : Audio Coding 3
Codec ID : A_AC3
Duration : 1 h 49 min
Bit rate mode : Constant
Bit rate : 192 kb/s
Channel(s) : 2 channels
Channel positions : Front: L R
Sampling rate : 48.0 kHz
Frame rate : 31.250 FPS (1536 SPF)
Bit depth : 16 bits
Compression mode : Lossy
Stream size : 151 MiB (1%)
Title : [HDRezka Studio]
Language : Russian
Service kind : Complete Main
Default : No
Forced : No

Audio #3
ID : 4
Format : AC-3
Format/Info : Audio Coding 3
Codec ID : A_AC3
Duration : 1 h 49 min
Bit rate mode : Constant
Bit rate : 192 kb/s
Channel(s) : 2 channels
Channel positions : Front: L R
Sampling rate : 48.0 kHz
Frame rate : 31.250 FPS (1536 SPF)
Bit depth : 16 bits
Compression mode : Lossy
Stream size : 151 MiB (1%)
Title : iTunes
Language : Ukrainian
Service kind : Complete Main
Default : No
Forced : No

Audio #4
ID : 5
Format : DTS
Format/Info : Digital Theater Systems
Format profile : MA / Core
Codec ID : A_DTS
Duration : 1 h 49 min
Bit rate mode : Variable / Constant
Bit rate : 3 623 kb/s / 1 509 kb/s
Channel(s) : 6 channels
Channel positions : Front: L C R, Side: L R, LFE
Sampling rate : 48.0 kHz
Frame rate : 93.750 FPS (512 SPF)
Bit depth : 24 bits
Compression mode : Lossless / Lossy
Stream size : 2.78 GiB (10%)
Language : English
Default : No
Forced : No

Text #1
ID : 6
Format : UTF-8
Codec ID : S_TEXT/UTF8
Codec ID/Info : UTF-8 Plain Text
Duration : 1 h 48 min
Bit rate : 113 b/s
Count of elements : 1818
Stream size : 90.6 KiB (0%)
Title : iTunes
Language : Russian
Default : Yes
Forced : No

Text #2
ID : 7
Format : UTF-8
Codec ID : S_TEXT/UTF8
Codec ID/Info : UTF-8 Plain Text
Duration : 1 h 48 min
Bit rate : 106 b/s
Count of elements : 1827
Stream size : 85.2 KiB (0%)
Title : Full
Language : Ukrainian
Default : No
Forced : No

Text #3
ID : 8
Format : UTF-8
Codec ID : S_TEXT/UTF8
Codec ID/Info : UTF-8 Plain Text
Duration : 1 h 48 min
Bit rate : 63 b/s
Count of elements : 1806
Stream size : 50.7 KiB (0%)
Title : iTunes
Language : Romanian
Default : No
Forced : No

Text #4
ID : 9
Format : UTF-8
Codec ID : S_TEXT/UTF8
Codec ID/Info : UTF-8 Plain Text
Duration : 1 h 44 min
Bit rate : 80 b/s
Count of elements : 2019
Stream size : 61.5 KiB (0%)
Title : Full
Language : English
Default : No
Forced : No

Text #5
ID : 10
Format : UTF-8
Codec ID : S_TEXT/UTF8
Codec ID/Info : UTF-8 Plain Text
Duration : 1 h 47 min
Bit rate : 91 b/s
Count of elements : 2266
Stream size : 71.5 KiB (0%)
Title : SDH
Language : English
Default : No
Forced : No

Menu
00:00:00.000 : en:Chapter 01
00:04:13.795 : en:Chapter 02
00:08:38.893 : en:Chapter 03
00:13:51.121 : en:Chapter 04
00:18:04.041 : en:Chapter 05
00:25:37.994 : en:Chapter 06
00:29:25.138 : en:Chapter 07
00:33:52.321 : en:Chapter 08
00:42:03.229 : en:Chapter 09
00:47:46.613 : en:Chapter 10
00:54:15.043 : en:Chapter 11
00:59:24.435 : en:Chapter 12
01:02:49.390 : en:Chapter 13
01:05:40.770 : en:Chapter 14
01:09:55.399 : en:Chapter 15
01:17:11.501 : en:Chapter 16
01:20:03.298 : en:Chapter 17
01:22:22.687 : en:Chapter 18
01:24:27.562 : en:Chapter 19
01:27:52.850 : en:Chapter 20
01:32:35.633 : en:Chapter 21
01:38:17.433 : en:Chapter 22
01:41:13.192 : en:Chapter 23
01:45:44.963 : en:Chapter 24

pb.wtf



Скачать С любовью, Саймон через торрент http://lostpix.com/img/2018-06/11/6qvgmajfjhmqz47b54gy0t8ks.jpg Скачать фильм С любовью, Саймон через торрент бесплантно в хорошем качестве Описание: Старшеклассник Саймон скрывает от друзей свою гомосексуальность, но его переписка с анонимным возлюбленным попадает в чужие руки. ... 6.4 10 5
Info! Золотая раздача, скачанное не засчитывается.
Торрент: Зарегистрирован [2018-07-13 01:44] · скачан: 0 раз
Статус: √ проверено
Размер: 27.25 GB
Как cкачать? Как скачать С любовью, Саймон через торрент | qTorrent

% Раздел Тема Автор DL S | L
Фильмы 2018 [DVDrip, WEB-DLRip, HDrip] (DUB, MVO) [ 1.41 GB ] С любовью Саймон / Love Simon [2018 BDRip] MVO bober100 Скачать
1 | 0
Фильмы [HD 720p, 1080p] (Хороший звук DUB, MVO) [ 5.46 GB ] С любовью Саймон / Love Simon [2018 BDRip 720p] 2xMVO [HDRezka Studio ] bober100 Скачать
1 | 0
Фильмы 2018 [DVDrip, WEB-DLRip, HDrip] (DUB, MVO) [ 711 MB ] С любовью Саймон / Love Simon [2018 HDRip многоголосый закадровый ""] coc900 Скачать
1 | 0
Фильмы 2018 [DVDrip, WEB-DLRip, HDrip] (DUB, MVO) [ 2.06 GB ] С любовью Саймон / Love Simon [2018 BDRip-AVC] 2xMVO [HDRezka Studio ] bober100 Скачать
1 | 0
Фильмы [HD 720p, 1080p] (Хороший звук DUB, MVO) [ 11.73 GB ] С любовью Саймон / Love Simon [2018 BDRip 1080p] 2xMVO [HDRezka Studio ] bober100 Скачать
3 | 0
Ultra HD (UHD: 2K, 4K, 8K) — видео сверхвысокой чёткости [ 53.2 GB ] С любовью Саймон / Love Simon [2018 UHD BDRemux 2160p] 2xMVO [HDRezka Studio ] bober100 Скачать
1 | 0

28-11-2019 20:33  

Отключить всю рекламу на сайте

13-07-2018 04:24 С любовью, Саймон Скачать торрент  

pb.wtf



17-07-2018 15:55 С любовью, Саймон Скачать торрент  

В рот мне ноги педерасты наступают pb.wtf



17-07-2018 19:16 С любовью, Саймон Скачать торрент  

Где поставить дизлайк этой херне?! pb.wtf



    Дорогой пользователь! Огромная просьба, поблагодарите релизера, оцените раздачу и оставьте свои комментарий, если Вы скачали С любовью, Саймон через торрент бесплатно! Внесите свою лепту в развитие PiratBit!
    Комментировать посты могут только пользователи прошедшие не сложную регистрацию
    Показать сообщения:    

    С любовью, Саймон через торрент
    Скачать бесплатно С любовью, Саймон
    С любовью, Саймон скачать торрент
    С любовью, Саймон смотреть онлайн
    Cкачать фильм С любовью, Саймон бесплатно
    С любовью, Саймон скачать торрент в хорошем качестве
    С любовью, Саймон смотреть онлайн бесплатно в хорошем качестве


    Вы не можете начинать темы
    Вы не можете отвечать на сообщения
    Вы не можете редактировать свои сообщения
    Вы не можете удалять свои сообщения
    Вы не можете голосовать в опросах
    Вы не можете прикреплять файлы к сообщениям
    Вы можете скачивать файлы