Ссылка на приватное зеркало нашего сайта всего за 1$. Внимание количество ограничено!!!

2 сезон

iTunes

1 сезон

1

2 сезон

2 сезон

iTunes

1 сезон

RePack

30

Новинка

ВАЖНО

ИГРА 18+

pack

RePack

MK11
pack

Забери бонус

RePack

jed

!!Акция!!

Alien_Rage

RePack

fifa19

RePack

Assassins Creed: Odyssey

RePack

NEED FOR SPEED™ PAYBACK

4 сезон

9 сезон

Бесстыжие 9 сезон

Все сериалы

все сериалы на PB.wtf

RePack

FAR CRY 5
  

Второй шанс / Second Chance / Сезон: 1 / Серии: 1-11 из 11 (Сара Пиа Андерсон, Адам Кэйн, Майкл Куэста) [2016, фантастика, боевик, WEB-DL 720p] MVO [NewStudio] pb.wtf

Второй шанс через торрент pb.wtf

Размер: 16.24 GB | Добавлен: 2 года 4 мес. назад | Торрент скачан:51 раз
Скачать  

13-07-2018 04:24 Второй шанс Скачать торрент  

Второй шанс / Second Chance
Информация о фильме:

Название: Второй шанс
Оригинальное название: Second Chance
Год выпуска: 2016
Страна: США
Жанр: фантастика, боевик
Продолжительность: ~ 00:45:00 серия
Перевод: Профессиональный многоголосый |
Субтитры: отсутствуют

Режиссер: Сара Пиа Андерсон, Адам Кэйн, Майкл Куэста

rating

В ролях:

Роберт Казински, Адхир Кальян, Тим ДиКей, Дилшад Вадсариа, Филип Бейкер Холл, Сиэра Браво, Хезер Д. Бенуа и др.

Описание:

Когда 75-летнего шерифа убивают, он обретает шанс на новую жизнь. Учёные возвращают его в мир живых — он становится своеобразной версией Франкенштейна, получившей сверхсилу и вернувшей молодость. Теперь главному герою этой истории предстоит разобраться в том, по какой причине и кто именно его убил.



Информация о файле:

Качество: WEB-DL 720p
Формат: MKV

Видео: ~ 1280x720 at 23.976 fps, AVC, ~4 000 kbps avg
Аудио#1 RU: 48 kHz, AC3, 6 ch, ~384 kbps avg |Многоголосый закадровый, NewStudio|
Аудио#2 EN: 48 kHz, AC3, 6 ch, ~384 kbps
скриншот   скриншот   скриншот   скриншот  

Общее
Уникальный идентификатор : 188540946494429510859965119228535827570 (0x8DD7AA5B90ADD1928392EC0E5B12EC72)
Полное имя : D:\Второй шанс 1 сезон\Second.Chance.s01e01.WEBDL.720p.NewStudio.TV.mkv
Формат : Matroska
Версия формата : Version 4 / Version 2
Размер файла : 1,51 Гбайт
Продолжительность : 45 м. 25 с.
Общий поток : 4753 Кбит/сек
Дата кодирования : UTC 2016-01-15 11:35:14
Программа кодирования : mkvmerge v8.2.0 ('World of Adventure') 32bit
Библиотека кодирования : libebml v1.3.1 + libmatroska v1.4.2

Видео
Идентификатор : 1
Формат : AVC
Формат/Информация : Advanced Video Codec
Профиль формата : High@L3.1
Параметр CABAC формата : Нет
Параметр RefFrames формата : 2 кадра
Идентификатор кодека : V_MPEG4/ISO/AVC
Продолжительность : 45 м. 25 с.
Битрейт : 3983 Кбит/сек
Ширина : 1280 пикселей
Высота : 720 пикселей
Соотношение сторон : 16:9
Режим частоты кадров : Постоянный
Частота кадров : 23,976 (24000/1001) кадра/сек
Цветовое пространство : YUV
Субдискретизация насыщенности : 4:2:0
Битовая глубина : 8 бит
Тип развёртки : Прогрессивная
Бит/(Пиксели*Кадры) : 0.180
Размер потока : 1,26 Гбайт (84%)
Язык : English
Default : Да
Forced : Нет
Цветовой диапазон : Limited
Основные цвета : BT.709
Характеристики трансфера : BT.709
Коэффициенты матрицы : BT.709

Аудио #1
Идентификатор : 2
Формат : AC-3
Формат/Информация : Audio Coding 3
Расширение режима : CM (complete main)
Параметр Endianness формата : Big
Идентификатор кодека : A_AC3
Продолжительность : 45 м. 25 с.
Вид битрейта : Постоянный
Битрейт : 384 Кбит/сек
Каналы : 6 каналов
Расположение каналов : Front: L C R, Side: L R, LFE
Частота : 48,0 КГц
Частота кадров : 31,250 кадров/сек (1536 spf)
Метод сжатия : С потерями
Размер потока : 125 Мбайт (8%)
Заголовок : NewStudio.TV
Язык : Russian
Default : Да
Forced : Нет

Аудио #2
Идентификатор : 3
Формат : AC-3
Формат/Информация : Audio Coding 3
Расширение режима : CM (complete main)
Параметр Endianness формата : Big
Идентификатор кодека : A_AC3
Продолжительность : 45 м. 25 с.
Вид битрейта : Постоянный
Битрейт : 384 Кбит/сек
Каналы : 6 каналов
Расположение каналов : Front: L C R, Side: L R, LFE
Частота : 48,0 КГц
Частота кадров : 31,250 кадров/сек (1536 spf)
Метод сжатия : С потерями
Задержка видео : 15 мс.
Размер потока : 125 Мбайт (8%)
Язык : English
Default : Нет
Forced : Нет

pb.wtf



Скачать Второй шанс через торрент https://img11.lostpic.net/2018/07/12/3e91c123b7fc220df0c5d2a4f0b48aca.png Скачать фильм Второй шанс через торрент бесплантно в хорошем качестве Описание: Когда 75-летнего шерифа убивают, он обретает шанс на новую жизнь. Учёные возвращают его в мир живых — он становится своеобразной ... 10 10 4
Info! Золотая раздача, скачанное не засчитывается.
Торрент: Зарегистрирован [2018-07-13 04:24] · скачан: 51 раз
Статус: √ проверено
Размер: 16.24 GB
Как cкачать? Как скачать Второй шанс через торрент | qTorrent

% Раздел Тема Автор DL S | L
Зарубежные сериалы [ 5.76 GB ] Второй шанс / Second Chance / Сезон: 1 / Серии: 1-11 из 11 [2016 WEB-DLRip] MVO [NewStudio] bober100 Скачать
1 | 0
Зарубежные сериалы [ 9.7 GB ] Второй шанс / Second Chance / Сезон: 1 / Серия 1-11 из 11 [2016 WEB-DLRip-AVC] MVO [BaibaKo] GEKADOL Скачать
1 | 0

28-11-2019 20:33  

Отключить всю рекламу на сайте

    Дорогой пользователь! Огромная просьба, поблагодарите релизера, оцените раздачу и оставьте свои комментарий, если Вы скачали Второй шанс через торрент бесплатно! Внесите свою лепту в развитие PiratBit!
    Комментировать посты могут только пользователи прошедшие не сложную регистрацию
    Показать сообщения:    

    Второй шанс через торрент
    Скачать бесплатно Второй шанс
    Второй шанс скачать торрент
    Второй шанс смотреть онлайн
    Cкачать фильм Второй шанс бесплатно
    Второй шанс скачать торрент в хорошем качестве
    Второй шанс смотреть онлайн бесплатно в хорошем качестве


    Вы не можете начинать темы
    Вы не можете отвечать на сообщения
    Вы не можете редактировать свои сообщения
    Вы не можете удалять свои сообщения
    Вы не можете голосовать в опросах
    Вы не можете прикреплять файлы к сообщениям
    Вы можете скачивать файлы