Ссылка на приватное зеркало всего за 1$. Внимание количество ограничено!!!

iTunes

iTunes

iTunes

1

iTunes

iTunes

iTunes

WEBRip

iTunes

30
pack

$ от Little Big

ВАЖНО

!!Акция!!

Alien_RageХит недели

RePack

Resident Evil 21

ИГРА 18+

pack

RePack

jed

!!Акция!!

Alien_Rage

RePack

fifa19

RePack

Assassins Creed: Odyssey

RePack

NEED FOR SPEED™ PAYBACK

4 сезон

9 сезон

Бесстыжие 9 сезон

Все сериалы

все сериалы на PB.wtf

RePack

FAR CRY 5
  

Бесит быть нормальным / Mad to Be Normal (Роберт Маллан) [2017, Драма, биография, история, WEB-DL 1080p] MVO [GreenРай Studio] pb.wtf

Бесит быть нормальным через торрент pb.wtf

Размер: 3.26 GB | Добавлен: 2 года назад | Торрент скачан:27 раз
Скачать  

13-07-2018 05:27 Бесит быть нормальным Скачать торрент  

Бесит быть нормальным / Mad to Be Normal
Год выпуска: 2017
Страна: Великобритания
Жанр: Драма, биография, история
Продолжительность: 01:46:19
Перевод: Любительский (многоголосый) | GreenРай Studio
Субтитры: Отсутствуют

Режиссер: Роберт Маллан

rating

В ролях: Элизабет Мосс, Дэвид Теннант, Майкл Гэмбон, Гэбриел Бирн, Дэвид Бамбер, Тревор Уайт, Оливия Пуле, Дэвид Эннэн, Джером Холдер, Зак Холлэнд

Описание: 60-е годы ХХ века. Р. Д. Лэйнг - шотландский психиатр, который возмущён тем, как его коллеги по цеху относятся к своим пациентам: клиники-тюрьмы, принудительное лечение, электрошок. Он открывает собственный центр в большом доме в восточном Лондоне, где разрабатывает новые способы работы с больными: групповая терапия, совместные разговоры, никакого насилия и лекарств (хотя врачебные дозы ЛСД никому не помешают). Профессиональное сообщество же смотрит на доктора так, словно он основал странный и потенциально опасный культ.

Качество: WEB-DL 1080p
Формат: MKV
Видео кодек: AVC
Аудио кодек: AC3
Видео: AVC, 1920x816 , 29.9fps, 4000 Kbps
Аудио#1: AC3 , 2 ch , 48 kHz , 448 kbps
Общее
Уникальный идентификатор : 211048575618951935267470508251097195455 (0x9EC67A2688B0A4C7BA4836D18935E3BF)
Полное имя : D:Mad.to.Be.Normal.2017.P.WEB-DL.1080p.mkv
Формат : Matroska
Версия формата : Version 4 / Version 2
Размер файла : 3,26 Гбайт
Продолжительность : 1 ч. 46 м.
Режим общего битрейта : Постоянный
Общий поток : 4389 Кбит/сек
Дата кодирования : UTC 2018-07-09 18:16:28
Программа кодирования : mkvmerge v6.5.0 ('Isn't she lovely') built on Oct 20 2013 12:50:05
Библиотека кодирования : libebml v1.3.0 + libmatroska v1.4.1

Видео
Идентификатор : 1
Формат : AVC
Формат/Информация : Advanced Video Codec
Профиль формата : Main@L4.0
Параметр CABAC формата : Да
Параметр ReFrames формата : 3 кадра
Параметр GOP формата : M=1, N=15
Идентификатор кодека : V_MPEG4/ISO/AVC
Продолжительность : 1 ч. 46 м.
Вид битрейта : Постоянный
Битрейт : 4000 Кбит/сек
Ширина : 1920 пикселей
Высота : 816 пикселей
Соотношение сторон : 2,35:1
Режим частоты кадров : Постоянный
Частота кадров : 23,976 кадра/сек
Стандарт вещания : NTSC
Цветовое пространство : YUV
Субдискретизация насыщенности : 4:2:0
Битовая глубина : 8 бит
Тип развёртки : Прогрессивная
Бит/(Пиксели*Кадры) : 0.106
Размер потока : 2,86 Гбайт (88%)
Язык : English
Default : Да
Forced : Нет

Аудио
Идентификатор : 2
Формат : AC-3
Формат/Информация : Audio Coding 3
Расширение режима : CM (complete main)
Параметр Endianness формата : Big
Идентификатор кодека : A_AC3
Продолжительность : 1 ч. 46 м.
Вид битрейта : Постоянный
Битрейт : 448 Кбит/сек
Каналы : 2 канала
Расположение каналов : Front: L R
Частота : 48,0 КГц
Битовая глубина : 16 бит
Метод сжатия : С потерями
Размер потока : 341 Мбайт (10%)
Default : Да
Forced : Нет

pb.wtf



Скачать Бесит быть нормальным через торрент https://a.radikal.ru/a03/1807/68/f8ef69a66960.jpg Скачать фильм Бесит быть нормальным через торрент бесплантно в хорошем качестве Описание: 60-е годы ХХ века. Р. Д. Лэйнг - шотландский психиатр, который возмущён тем, как его коллеги по цеху относятся к своим пациентам: ... 10 10 2
Торрент: Зарегистрирован [2018-07-13 05:27] · скачан: 27 раз
Статус: T временная
Размер: 3.26 GB
Как cкачать? Как скачать Бесит быть нормальным через торрент | qTorrent



Последний раз редактировалось: Скорпион1976 (2018-07-13 14:14), всего редактировалось 1 раз

28-11-2019 20:33  

Отключить всю рекламу на сайте

13-07-2018 08:04 Бесит быть нормальным Скачать торрент  

Скорпион1976 писал(а):

Видео: AVC, 1920x1080

Не соответсвует размеру скриншота и отчёта MIpb.wtf



13-07-2018 08:05 Бесит быть нормальным Скачать торрент  

    Дорогой пользователь! Огромная просьба, поблагодарите релизера, оцените раздачу и оставьте свои комментарий, если Вы скачали Бесит быть нормальным через торрент бесплатно! Внесите свою лепту в развитие PiratBit!
    Комментировать посты могут только пользователи прошедшие не сложную регистрацию
    Показать сообщения:    

    Бесит быть нормальным через торрент
    Скачать бесплатно Бесит быть нормальным
    Бесит быть нормальным скачать торрент
    Бесит быть нормальным смотреть онлайн
    Cкачать фильм Бесит быть нормальным бесплатно
    Бесит быть нормальным скачать торрент в хорошем качестве
    Бесит быть нормальным смотреть онлайн бесплатно в хорошем качестве


    Вы не можете начинать темы
    Вы не можете отвечать на сообщения
    Вы не можете редактировать свои сообщения
    Вы не можете удалять свои сообщения
    Вы не можете голосовать в опросах
    Вы не можете прикреплять файлы к сообщениям
    Вы можете скачивать файлы