2 сезон

iTunes

MVO

1

2 сезон

iTunes

iTunes

1 сезон

RePack

30

Новинка

ВАЖНО

ИГРА 18+

pack

RePack

MK11
pack

Легкие деньги

RePack

jed

RePack

fifa19

RePack

RDR2

RePack

NEED FOR SPEED™ PAYBACK

4 сезон

9 сезон

Бесстыжие 9 сезон

Все сериалы

все сериалы на PB.wtf

RePack

FAR CRY 5

Anonymous, доброе утро, мы не успеваем собрать деньги на оплату серверов за декабрь и январь, помогите нам пожалуйста в это трудное время. В качестве благодарности мы отключим Вам всю рекламу на сайте (укажите свой ник в строку Ваше имя)!

×
  
Magnet ссылка

Росомаха: Бессмертный / The Wolverine (Джеймс Мэнголд) [2013, фантастика, фэнтези, боевик, приключения, BDRip-HEVC 1080p, (10Bit)] [Extended Cut] 2xAVO+DUB [Лицензия] pb.wtf

Росомаха: Бессмертный через торрент pb.wtf

Размер: 6.19 GB | Добавлен: 2 года 6 мес. назад | Торрент скачан:113 раз
Скачать  

13-07-2018 06:05 Росомаха: Бессмертный Скачать торрент  

Росомаха: Бессмертный / The Wolverine
Год выпуска: 2013
Страна: Австралия, США
Жанр: фантастика, фэнтези, боевик, приключения
Продолжительность: 02:18:05
Перевод: Профессиональный (дублированный) [Blu ray]+субтитры на не переведённые места, Авторский одноголосый
Субтитры: русские (форсированные, полные), английские

Режиссер: Джеймс Мэнголд

rating

В ролях:

Хью Джекман, Тао Окамото, Рила Фукусима, Светлана Ходченкова, Уилл Юн Ли, Харукико Яманоути, Хироюки Санада, Брайан Ти, Кен Ямамура, Фамке Янссен, Нобутака Аояги, Сейдзи Фунамото, Синдзи Икефуджи, Киоко Саито, Нубаки Какуда, Чихару Мидзуно, Такао Киносита, Конрад Колеби, Тарис Тайлер, Аллан Попплтон

Описание:

Новая глава приключений Росомахи развернётся в Японии, где Логану предстоит выяснить, что острее — когти Росомахи или меч Серебряного Самурая.



Качество: BDRip-HEVC 1080p | Extended Cut
Формат: MKV

Видео: 1920x800 (2.40:1), 4623 Кбит/сек, 0.126 бит/(Пиксели*Кадры), 23,976 кадр/сек (24000/1001), HEVC (Main10@L.4.1@High) 10 бит
Аудио#1: Русская, AC3, 448 Кбит/сек, Front: L C R, Side: L R, LFE, 48,0 КГц (Дубляж)
Аудио#2: Русская, AC3, 448 Кбит/сек, Front: L C R, Side: L R, LFE, 48,0 КГц (AVO Володарский)
Аудио#3: Русская, AC3, 448 Кбит/сек, Front: L C R, Side: L R, LFE, 48,0 КГц (AVO Дольский)
Аудио#4: Английская, AC3, 448 Кбит/сек, Front: L C R, Side: L R, LFE, 48,0 КГц (Оригинал)
скриншот  скриншот  скриншот  скриншот  скриншот  

General
Unique ID : 227913226265737996611827627199607594326 (0xAB767D9FBDC5F3C78586F0FB6A3BDD56)
Complete name : H:HEVC 210 BITThe Wolferine_2013_[Extended]_BDRip_1080p_[HEVC]_10bit.mkv
Format : Matroska
Format version : Version 4 / Version 2
File size : 6.19 GiB
Duration : 2 h 18 min
Overall bit rate : 6 418 kb/s
Encoded date : UTC 2018-01-15 15:49:40
Writing application : mkvmerge v18.0.0 ('Apricity') 64-bit
Writing library : libebml v1.3.5 + libmatroska v1.4.8
Cover : Yes
Attachments : cover.png

Video
ID : 1
Format : HEVC
Format/Info : High Efficiency Video Coding
Format profile : Main 10@L4.1@High
Codec ID : V_MPEGH/ISO/HEVC
Duration : 2 h 18 min
Bit rate : 4 623 kb/s
Width : 1 920 pixels
Height : 800 pixels
Display aspect ratio : 2.40:1
Frame rate mode : Constant
Frame rate : 23.976 (24000/1001) FPS
Color space : YUV
Chroma subsampling : 4:2:0
Bit depth : 10 bits
Bits/(Pixel*Frame) : 0.126
Stream size : 4.46 GiB (72%)
Writing library : x265 2.6+22-ff02513b92c0:[Windows][GCC 7.2.0][64 bit] 10bit
Encoding settings : cpuid=1173503 / frame-threads=4 / numa-pools=16 / wpp / no-pmode / no-pme / no-psnr / no-ssim / log-level=2 / input-csp=1 / input-res=1920x800 / interlace=0 / total-frames=0 / level-idc=41 / high-tier=1 / uhd-bd=0 / ref=5 / no-allow-non-conformance / no-repeat-headers / annexb / no-aud / no-hrd / info / hash=0 / no-temporal-layers / open-gop / min-keyint=23 / keyint=240 / gop-lookahead=0 / bframes=8 / b-adapt=2 / no-b-pyramid / bframe-bias=0 / rc-lookahead=60 / lookahead-slices=4 / scenecut=40 / radl=0 / no-intra-refresh / ctu=64 / min-cu-size=8 / rect / amp / max-tu-size=32 / tu-inter-depth=4 / tu-intra-depth=4 / limit-tu=1 / rdoq-level=2 / dynamic-rd=0.00 / no-ssim-rd / signhide / tskip / nr-intra=0 / nr-inter=0 / no-constrained-intra / no-strong-intra-smoothing / max-merge=5 / limit-refs=0 / limit-modes / me=3 / subme=7 / merange=57 / temporal-mvp / weightp / weightb / no-analyze-src-pics / deblock=-3:-3 / no-sao / no-sao-non-deblock / rd=6 / no-early-skip / no-rskip / no-fast-intra / no-tskip-fast / no-cu-lossless / b-intra / no-splitrd-skip / rdpenalty=0 / psy-rd=2.00 / psy-rdoq=1.00 / no-rd-refine / no-lossless / cbqpoffs=0 / crqpoffs=0 / rc=crf / crf=18.0 / qcomp=0.60 / qpstep=4 / stats-write=0 / stats-read=0 / vbv-maxrate=50000 / vbv-bufsize=50000 / vbv-init=0.9 / crf-max=0.0 / crf-min=0.0 / ipratio=1.40 / pbratio=1.30 / aq-mode=1 / aq-strength=1.00 / cutree / zone-count=1 / zones: / start-frame=188899 / end-frame=198648 / qp=35 / no-strict-cbr / qg-size=32 / no-rc-grain / qpmax=69 / qpmin=0 / no-const-vbv / sar=0 / overscan=0 / videoformat=5 / range=0 / colorprim=2 / transfer=2 / colormatrix=1 / chromaloc=0 / display-window=0 / max-cll=0,0 / min-luma=0 / max-luma=1023 / log2-max-poc-lsb=8 / vui-timing-info / vui-hrd-info / slices=1 / no-opt-qp-pps / no-opt-ref-list-length-pps / no-multi-pass-opt-rps / scenecut-bias=0.05 / opt-cu-delta-qp / no-aq-motion / no-hdr / no-hdr-opt / no-dhdr10-opt / analysis-save=(null) / analysis-load=(null) / analysis-reuse-level=5 / scale-factor=0 / refine-intra=0 / refine-inter=0 / refine-mv=0 / no-limit-sao / ctu-info=0 / no-lowpass-dct / refine-mv-type=0 / copy-pic=1
Default : Yes
Forced : Yes
Color range : Limited
Matrix coefficients : BT.709

Audio #1
ID : 2
Format : AC-3
Format/Info : Audio Coding 3
Format settings, Endianness : Big
Codec ID : A_AC3
Duration : 2 h 18 min
Bit rate mode : Constant
Bit rate : 448 kb/s
Channel(s) : 6 channels
Channel positions : Front: L C R, Side: L R, LFE
Sampling rate : 48.0 kHz
Frame rate : 31.250 FPS (1536 SPF)
Bit depth : 16 bits
Compression mode : Lossy
Stream size : 442 MiB (7%)
Title : Дубляж
Language : Russian
Service kind : Complete Main
Default : Yes
Forced : No

Audio #2
ID : 3
Format : AC-3
Format/Info : Audio Coding 3
Format settings, Endianness : Big
Codec ID : A_AC3
Duration : 2 h 18 min
Bit rate mode : Constant
Bit rate : 448 kb/s
Channel(s) : 6 channels
Channel positions : Front: L C R, Side: L R, LFE
Sampling rate : 48.0 kHz
Frame rate : 31.250 FPS (1536 SPF)
Bit depth : 16 bits
Compression mode : Lossy
Stream size : 442 MiB (7%)
Title : AVO Володарский
Language : Russian
Service kind : Complete Main
Default : No
Forced : No

Audio #3
ID : 4
Format : AC-3
Format/Info : Audio Coding 3
Format settings, Endianness : Big
Codec ID : A_AC3
Duration : 2 h 18 min
Bit rate mode : Constant
Bit rate : 448 kb/s
Channel(s) : 6 channels
Channel positions : Front: L C R, Side: L R, LFE
Sampling rate : 48.0 kHz
Frame rate : 31.250 FPS (1536 SPF)
Bit depth : 16 bits
Compression mode : Lossy
Stream size : 442 MiB (7%)
Title : AVO Дольский
Language : Russian
Service kind : Complete Main
Default : No
Forced : No

Audio #4
ID : 5
Format : AC-3
Format/Info : Audio Coding 3
Format settings, Endianness : Big
Codec ID : A_AC3
Duration : 2 h 18 min
Bit rate mode : Constant
Bit rate : 448 kb/s
Channel(s) : 6 channels
Channel positions : Front: L C R, Side: L R, LFE
Sampling rate : 48.0 kHz
Frame rate : 31.250 FPS (1536 SPF)
Bit depth : 16 bits
Compression mode : Lossy
Stream size : 442 MiB (7%)
Title : Оригинал
Language : English
Service kind : Complete Main
Default : No
Forced : No

Text #1
ID : 6
Format : UTF-8
Codec ID : S_TEXT/UTF8
Codec ID/Info : UTF-8 Plain Text
Duration : 2 h 4 min
Bit rate : 8 b/s
Count of elements : 187
Stream size : 7.44 KiB (0%)
Title : RUS Forced
Language : Russian
Default : Yes
Forced : Yes

Text #2
ID : 7
Format : UTF-8
Codec ID : S_TEXT/UTF8
Codec ID/Info : UTF-8 Plain Text
Duration : 2 h 9 min
Bit rate : 45 b/s
Count of elements : 1044
Stream size : 43.6 KiB (0%)
Title : RUS Full
Language : Russian
Default : No
Forced : No

Text #3
ID : 8
Format : UTF-8
Codec ID : S_TEXT/UTF8
Codec ID/Info : UTF-8 Plain Text
Duration : 2 h 9 min
Bit rate : 28 b/s
Count of elements : 1057
Stream size : 26.8 KiB (0%)
Title : ENG
Language : English
Default : No
Forced : No

Menu
00:00:00.000 : en:[ 1 ]
00:05:03.720 : en:[ 2 ]
00:07:39.792 : en:[ 3 ]
00:08:40.561 : en:[ 4 ]
00:10:24.373 : en:[ 5 ]
00:13:55.668 : en:[ 6 ]
00:16:48.173 : en:[ 7 ]
00:20:32.648 : en:[ 8 ]
00:23:36.915 : en:[ 9 ]
00:29:13.585 : en:[ 10 ]
00:33:42.770 : en:[ 11 ]
00:35:14.779 : en:[ 12 ]
00:38:36.522 : en:[ 13 ]
00:43:04.957 : en:[ 14 ]
00:47:55.080 : en:[ 15 ]
00:49:31.843 : en:[ 16 ]
00:52:23.098 : en:[ 17 ]
00:59:32.318 : en:[ 18 ]
01:01:31.354 : en:[ 19 ]
01:07:00.516 : en:[ 20 ]
01:13:10.260 : en:[ 21 ]
01:18:52.227 : en:[ 22 ]
01:23:40.473 : en:[ 23 ]
01:26:47.160 : en:[ 24 ]
01:29:50.927 : en:[ 25 ]
01:35:19.380 : en:[ 26 ]
01:38:28.193 : en:[ 27 ]
01:41:43.639 : en:[ 28 ]
01:48:33.006 : en:[ 29 ]
01:52:05.969 : en:[ 30 ]
01:54:56.264 : en:[ 31 ]
01:58:03.493 : en:[ 32 ]
02:03:01.999 : en:[ 33 ]
02:04:57.406 : en:[ 34 ]
02:07:46.700 : en:[ 35 ]
02:09:17.374 : en:[ 36 ]
02:18:05.026 : en:

pb.wtf



Скачать Росомаха: Бессмертный через торрент http://i101.fastpic.ru/big/2018/0115/5a/5109e48ff44e70e6160c93855a540a5a.png Скачать фильм Росомаха: Бессмертный через торрент бесплантно в хорошем качестве Описание: Новая глава приключений Росомахи развернётся в Японии, где Логану предстоит выяснить, что острее — когти Росомахи или меч ... 10 10 6
Info! Золотая раздача, скачанное не засчитывается.
Торрент: Зарегистрирован [2018-07-13 06:05] · скачан: 113 раз
Статус: √ проверено
Размер: 6.19 GB
Как cкачать? Как скачать Росомаха: Бессмертный через торрент | UTorrent

% Раздел Тема Автор DL S | L
Фильмы [HD 720p, 1080p] (Хороший звук DUB, MVO) [ 6.61 GB ] Росомаха: Бессмертный / The Wolverine [2013 BDRip 1080p HEVC ()] [Extended Cut] Мичман37 Скачать
1 | 0
Фильмы (Blu-ray, BD-Remux, HDDVD) [ 37.72 GB ] Росомаха: Бессмертный / The Wolverine [ 2013 Австралия BD Remux ]DUB () [Extended Cut] Ворон Скачать
2 | 0
Фильмы 2013 [DVDrip, WEB-DLRip, HDrip] [ 2.05 GB ] Росомаха: Бессмертный / The Wolverine [2013 Австралия HDRip [Цифровая / Russia] [Theatrical] Ворон Скачать
1 | 0
R.G. Resident & PiratVoice - Фильмы, Видео [ 3.51 GB ] Росомаха: Бессмертный / The Wolverine [2013 HDRip-AVC + Оригинал] от R.G. Resident Dean24 Скачать
1 | 0
Фильмы (Blu-ray, BD-Remux, HDDVD) [ 44.39 GB ] Росомаха: Бессмертный / The Wolverine [ 2013 Австралия Blu-ray CEE от BLUEBIRD / Театральная версия] Ворон Скачать
1 | 0
Фильмы [HD 720p, 1080p] (Хороший звук DUB, MVO) [ 5.38 GB ] Росомаха: Бессмертный / The Wolverine [Театральная версия] [2013 BDRip 720p] + MVO [BaibaKo] + Sub White Smoke Скачать
1 | 0
Фильмы 2013 [DVDrip, WEB-DLRip, HDrip] [ 1.46 GB ] Росомаха: Бессмертный / The Wolverine [2013 HDRip [][EXTENDED] MihailHD Скачать
1 | 0

28-11-2019 20:33  

Отключить всю рекламу на сайте

    Дорогой пользователь! Огромная просьба, поблагодарите релизера, оцените раздачу и оставьте свои комментарий, если Вы скачали Росомаха: Бессмертный через торрент бесплатно! Внесите свою лепту в развитие PiratBit!
    Комментировать посты могут только пользователи прошедшие не сложную регистрацию
    Показать сообщения:    

    Росомаха: Бессмертный через торрент
    Скачать бесплатно Росомаха: Бессмертный
    Росомаха: Бессмертный скачать торрент
    Росомаха: Бессмертный смотреть онлайн
    Cкачать фильм Росомаха: Бессмертный бесплатно
    Росомаха: Бессмертный скачать торрент в хорошем качестве
    Росомаха: Бессмертный смотреть онлайн бесплатно в хорошем качестве


    Вы не можете начинать темы
    Вы не можете отвечать на сообщения
    Вы не можете редактировать свои сообщения
    Вы не можете удалять свои сообщения
    Вы не можете голосовать в опросах
    Вы не можете прикреплять файлы к сообщениям
    Вы можете скачивать файлы