Ссылка на приватное зеркало нашего сайта всего за 1$. Внимание количество ограничено!!!

2 сезон

iTunes

1 сезон

1

2 сезон

2 сезон

iTunes

1 сезон

RePack

30

Новинка

ВАЖНО

ИГРА 18+

pack

RePack

MK11
pack

Забери бонус

RePack

jed

!!Акция!!

Alien_Rage

RePack

fifa19

RePack

Assassins Creed: Odyssey

RePack

NEED FOR SPEED™ PAYBACK

4 сезон

9 сезон

Бесстыжие 9 сезон

Все сериалы

все сериалы на PB.wtf

RePack

FAR CRY 5
  

Аванпост / Застава / The Outpost / Сезон: 1 / Серии: 1-10 из 10 (Джон Лойд, Кайнен Гриффин, Курт Найт) [2018, Фэнтези, WEB-DLRip] MVO [Jaskier] pb.wtf

Аванпост через торрент pb.wtf

Размер: 4.92 GB | Добавлен: 2 года 1 мес. назад | Торрент скачан:67 раз
Скачать  

13-07-2018 11:49 Аванпост Скачать торрент  

Аванпост / Застава / The Outpost
Год выпуска: 2018
Страна: США
Жанр: Фэнтези
Продолжительность: ~ 00:45:00
Перевод: Профессиональный многоголосый | Jaskier
Субтитры: отсутствуют

Режиссер: Джон Лойд, Кайнен Гриффин, Курт Найт

rating

В ролях:

Джессика Грин, Эндрю Ховард, Робин Малкольм, Чаран Прабхакар, Филип Броди, Кевин МакНэлли, Кокей Фалкоу, Эми Де Брюн, Шон Брэдли Хофер, Джейк Стормоен

Описание:

В центре сюжета оказывается юная и прекрасная представительница расы Чернокровок Тэлен. Она ищет убийц своей семьи, следы которых ведут в крепость, находящуюся на границе обитаемых земель. Во время длительной путешествия девушка обнаруживает у себя сверхъестественные способности, которыми ей придется овладеть, чтобы спасти себя и защитить мир от фанатичного религиозного диктатора.

Качество: WEB-DLRip
Формат: AVI

Видео: XviD, ~ 1400 kbps, 720x400, 23.976 fps
Аудио#1: MP3, 48,0 КГц, 2 ch, 128 kbps - RUS
Аудио#2: MP3, 48,0 КГц, 2 ch, 128 kbps - ENG
скриншот  скриншот  скриншот  

Общее
Полное имя : D:\Outpost. Сезон 1. (WEB-DL l 400p l JASKiER)\The.Outpost.S01E01.400p.JASKiER.avi
Формат : AVI
Формат/Информация : Audio Video Interleave
Размер файла : 507 Мбайт
Продолжительность : 42 м. 26 с.
Общий поток : 1670 Кбит/сек
Программа кодирования : VirtualDubMod 1.5.10.3 | www.virtualdub-fr.org || (build 2550/release)
Библиотека кодирования : VirtualDubMod build 2550/release

Видео
Идентификатор : 0
Формат : MPEG-4 Visual
Профиль формата : Advanced Simple@L5
Параметр BVOP формата : 2
Параметр QPel формата : Нет
Параметр GMC формата : Без точки перехода
Параметр матрицы формата : Выборочная
Идентификатор кодека : XVID
Идентификатор кодека/Подсказка : XviD
Продолжительность : 42 м. 26 с.
Битрейт : 1400 Кбит/сек
Ширина : 720 пикселей
Высота : 400 пикселей
Соотношение сторон : 16:9
Частота кадров : 23,976 (23976/1000) кадра/сек
Цветовое пространство : YUV
Субдискретизация насыщенности : 4:2:0
Битовая глубина : 8 бит
Тип развёртки : Прогрессивная
Метод сжатия : С потерями
Бит/(Пиксели*Кадры) : 0.203
Размер потока : 425 Мбайт (84%)
Библиотека кодирования : XviD 73

Аудио #1
Идентификатор : 1
Формат : MPEG Audio
Версия формата : Version 1
Профиль формата : Layer 3
Режим : Joint stereo
Расширение режима : MS Stereo
Идентификатор кодека : 55
Идентификатор кодека/Подсказка : MP3
Продолжительность : 42 м. 25 с.
Вид битрейта : Постоянный
Битрейт : 128 Кбит/сек
Каналы : 2 канала
Частота : 48,0 КГц
Метод сжатия : С потерями
Размер потока : 38,8 Мбайт (8%)
Выравнивание : Соединение по промежуткам
Продолжительность промежутка : 42 мс. (1,00 видеокадр)
Время предзагрузки промежутка : 504 мс.

Аудио #2
Идентификатор : 2
Формат : MPEG Audio
Версия формата : Version 1
Профиль формата : Layer 3
Режим : Joint stereo
Расширение режима : MS Stereo
Идентификатор кодека : 55
Идентификатор кодека/Подсказка : MP3
Продолжительность : 42 м. 25 с.
Вид битрейта : Постоянный
Битрейт : 128 Кбит/сек
Каналы : 2 канала
Частота : 48,0 КГц
Метод сжатия : С потерями
Размер потока : 38,8 Мбайт (8%)
Выравнивание : Соединение по промежуткам
Продолжительность промежутка : 42 мс. (1,00 видеокадр)
Время предзагрузки промежутка : 504 мс.

Внимание! Раздача ведётся путём добавления новых серий; при каждом добавлении создаётся новый торрент. Чтобы начать докачку новой серии, пользователям необходимо сделать следующее:
(1) остановить скачивание,
(2) удалить старый торрент у себя из клиента (старые серии удалять не надо),
(3) скачать новый торрент и запустить его у себя в клиенте вместо старого, при этом указать клиенту путь в старую папку куда и должно происходить скачивание новых серий.
Ваш клиент при этом должен произвести хеширование (проверку) старой папки (если не производит сам - помогите ему сделать это), и будет докачивать только те серии которых у вас ещё нет. Старые серии при этом не удаляются, а продолжают раздаваться!
Eсли вы уже удалили старые серии, то предотвратить повторную закачку старых серий можно, отжав галочку в соответствующих местах при запуске нового торрента. По возможности, желательно не удалять старые серии как можно дольше чтобы релизёр не столько продолжал раздавать старые серии, а смог сконцентрироваться на новых.
pb.wtf



Скачать Аванпост через торрент http://i104.fastpic.ru/big/2018/0713/fd/f7da6e693a45d944c51ab67411e3dafd.png Скачать фильм Аванпост через торрент бесплантно в хорошем качестве Описание: В центре сюжета оказывается юная и прекрасная представительница расы Чернокровок Тэлен. Она ищет убийц своей семьи, следы которых ... 8.8 10 8
Торрент: Зарегистрирован [2018-10-09 16:25] · скачан: 67 раз
Статус: √ проверено
Размер: 4.92 GB
Как cкачать? Как скачать Аванпост через торрент | qTorrent

% Раздел Тема Автор DL S | L
Зарубежные сериалы [ 17.54 GB ] Аванпост / Застава / The Outpost / Сезон: 3 / Серии: 1-6 из 13 [2020 WEB-DL 1080p] MVO [Jaskier] bober100 Скачать
1 | 0
Зарубежные сериалы [ 17.89 GB ] Аванпост / Застава / The Outpost / Сезон: 1 / Серии: 1-10 из 10 [2018 WEB-DL 1080p] MVO [NewStudio] bober100 Скачать
1 | 0
Зарубежные сериалы [ 5.37 GB ] Аванпост / Застава / The Outpost / Сезон: 1 / Серии: 1-10 из 10 [2018 WEB-DLRip] MVO [NewStudio] bober100 Скачать
1 | 0
Зарубежные сериалы [ 9.81 GB ] Аванпост / Застава / The Outpost / Сезон: 1 / Серии: 1-10 из 10 [2018 WEB-DL 720p] MVO [Jaskier] bober100 Скачать
1 | 0

28-11-2019 20:33  

Отключить всю рекламу на сайте

    Дорогой пользователь! Огромная просьба, поблагодарите релизера, оцените раздачу и оставьте свои комментарий, если Вы скачали Аванпост через торрент бесплатно! Внесите свою лепту в развитие PiratBit!
    Комментировать посты могут только пользователи прошедшие не сложную регистрацию
    Показать сообщения:    

    Аванпост через торрент
    Скачать бесплатно Аванпост
    Аванпост скачать торрент
    Аванпост смотреть онлайн
    Cкачать фильм Аванпост бесплатно
    Аванпост скачать торрент в хорошем качестве
    Аванпост смотреть онлайн бесплатно в хорошем качестве


    Вы не можете начинать темы
    Вы не можете отвечать на сообщения
    Вы не можете редактировать свои сообщения
    Вы не можете удалять свои сообщения
    Вы не можете голосовать в опросах
    Вы не можете прикреплять файлы к сообщениям
    Вы можете скачивать файлы