новый адрес
Ссылка на приватное зеркало всего за 1$. Внимание количество ограничено!!!

iTunes

1+1

iTunes

мы

WEB-DL

1

iTunes

Чернобыль

iTunes

Ральф против интернета

Лицензия

ПШазам

Лицензия

Оно 2

Лицензия

30
pack

Вам бонус

ВАЖНО

!!Акция!!

Alien_RageХит недели

RePack

Resident Evil 21

ИГРА 18+

pack

RePack

jed

!!Акция!!

Alien_Rage

RePack

fifa19

RePack

Assassins Creed: Odyssey

RePack

NEED FOR SPEED™ PAYBACK

3 сезон

9 сезон

Бесстыжие 9 сезон

Все сериалы

все сериалы на PB.wtf

RePack

FAR CRY 5
Ребята, катастрофически не хватает 1900р. для оплаты серверов за Октябрь (всвязи с блокировками трафик упал в 3 раза), 1-2р., выручайте.
  

С любовью, Саймон / Love, Simon (Грег Берланти) [2018, драма, мелодрама, комедия, BDRip-AVC] 2xMVO [HDRezka Studio, iTunes] pb.wtf

С любовью, Саймон через торрент pb.wtf

Раздают: 1 [ 0 KB/s ]
Размер: 2.06 GB | Добавлен: 1 год 4 мес. назад | Торрент скачан:349 раз
Скачать  

13-07-2018 14:30 С любовью, Саймон Скачать торрент  

С любовью, Саймон / Love, Simon
Год выпуска: 2018
Страна: США
Жанр: драма, мелодрама, комедия
Продолжительность: 01:49:43
Перевод:

#1: Профессиональный многоголосый | iTunes
#2: Профессиональный многоголосый | HDRezka Studio

Субтитры: Русские (форс., полные), Английские (полные, SDH)

Режиссер: Грег Берланти

rating

В ролях:

Ник Дж. Робинсон, Дженнифер Гарнер, Джош Дюамель, Кэтрин Лэнгфорд, Александра Шипп, Логан Миллер, Кейнан Лонсдейл, Хорхе Лендеборг мл., Талита Бейтман, Тони Хейл

Описание:

Старшеклассник Саймон скрывает от друзей свою гомосексуальность, но его переписка с анонимным возлюбленным попадает в чужие руки. Школьный «клоун» Мартин угрожает разоблачить Саймона, если тот не поможет ему завязать роман с местной красавицей.

Качество: BDRip-AVC
Формат: MKV

Видео: 1024x428 (2.40:1), 23,976 fps, x264 ~1 662 kbps avg, 0.158 bit/pixel
Аудио#1: 48 kHz, AC3 Dolby Digital, 3/2 (L,C,R,l,r) + LFE ch, ~384.00 kbps avg | RUS (iTunes)
Аудио#2: 48 kHz, AC3 Dolby Digital, 2 (L,R) ch, ~192.00 kbps avg | RUS (HDRezka Studio)
Аудио#3: 48 kHz, AC3 Dolby Digital, 3/2 (L,C,R,l,r) + LFE ch, ~448.00 kbps avg | ENG
скриншот   скриншот   скриншот   скриншот   скриншот  

Общее
Уникальный идентификатор : 176828567860435745571379828839584247999 (0x8507F181C7F5DCC28497696C218A30BF)
Полное имя : F:\OlLanDGroup\Love.Simon.2018.BDRip(AVC).OlLanDGroup.mkv
Формат : Matroska
Версия формата : Version 4 / Version 2
Размер файла : 2,06 Гбайт
Продолжительность : 1 ч. 49 м.
Общий поток : 2688 Кбит/сек
Название фильма : Love.Simon.2018 #TorpedoUK#
Дата кодирования : UTC 2018-07-13 13:41:23
Программа кодирования : mkvmerge v8.3.0 ('Over the Horizon') 64bit
Библиотека кодирования : libebml v1.3.1 + libmatroska v1.4.2
Обложка : Yes
Attachments : small_cover.jpg / small_cover_land.jpg / cover.jpg / cover_land.jpg

Видео
Идентификатор : 1
Формат : AVC
Формат/Информация : Advanced Video Codec
Профиль формата : High@L4.1
Параметр CABAC формата : Да
Параметр ReFrames формата : 10 кадров
Идентификатор кодека : V_MPEG4/ISO/AVC
Продолжительность : 1 ч. 49 м.
Битрейт : 1662 Кбит/сек
Ширина : 1024 пикселя
Высота : 428 пикселей
Соотношение сторон : 2,40:1
Режим частоты кадров : Постоянный
Частота кадров : 23,976 (24000/1001) кадра/сек
Цветовое пространство : YUV
Субдискретизация насыщенности : 4:2:0
Битовая глубина : 8 бит
Тип развёртки : Прогрессивная
Бит/(Пиксели*Кадры) : 0.158
Размер потока : 1,27 Гбайт (62%)
Библиотека кодирования : x264 core 146 r2538 121396c
Настройки программы : cabac=1 / ref=10 / deblock=1:-3:-3 / analyse=0x3:0x133 / me=umh / subme=11 / psy=1 / psy_rd=1.00:0.03 / mixed_ref=1 / me_range=48 / chroma_me=1 / trellis=2 / 8x8dct=1 / cqm=0 / deadzone=21,11 / fast_pskip=1 / chroma_qp_offset=-3 / threads=6 / lookahead_threads=1 / sliced_threads=0 / nr=0 / decimate=1 / interlaced=0 / bluray_compat=0 / constrained_intra=0 / bframes=10 / b_pyramid=2 / b_adapt=2 / b_bias=0 / direct=3 / weightb=1 / open_gop=0 / weightp=2 / keyint=240 / keyint_min=23 / scenecut=40 / intra_refresh=0 / rc_lookahead=40 / rc=2pass / mbtree=0 / bitrate=1662 / ratetol=1.0 / qcomp=0.60 / qpmin=0 / qpmax=69 / qpstep=4 / cplxblur=20.0 / qblur=0.5 / vbv_maxrate=50000 / vbv_bufsize=62500 / nal_hrd=none / filler=0 / ip_ratio=1.40 / pb_ratio=1.30 / aq=1:1.00
Язык : English
Default : Да
Forced : Нет

Аудио #1
Идентификатор : 2
Формат : AC-3
Формат/Информация : Audio Coding 3
Расширение режима : CM (complete main)
Параметр Endianness формата : Big
Идентификатор кодека : A_AC3
Продолжительность : 1 ч. 49 м.
Вид битрейта : Постоянный
Битрейт : 384 Кбит/сек
Каналы : 6 каналов
Расположение каналов : Front: L C R, Side: L R, LFE
Частота : 48,0 КГц
Частота кадров : 31,250 кадров/сек (1536 spf)
Битовая глубина : 16 бит
Метод сжатия : С потерями
Размер потока : 301 Мбайт (14%)
Заголовок : DUB (iTunes)
Язык : Russian
Default : Да
Forced : Нет

Аудио #2
Идентификатор : 3
Формат : AC-3
Формат/Информация : Audio Coding 3
Расширение режима : CM (complete main)
Параметр Endianness формата : Big
Идентификатор кодека : A_AC3
Продолжительность : 1 ч. 49 м.
Вид битрейта : Постоянный
Битрейт : 192 Кбит/сек
Каналы : 2 канала
Расположение каналов : Front: L R
Частота : 48,0 КГц
Частота кадров : 31,250 кадров/сек (1536 spf)
Битовая глубина : 16 бит
Метод сжатия : С потерями
Размер потока : 151 Мбайт (7%)
Заголовок : MVO [HDRezka Studio]
Язык : Russian
Default : Нет
Forced : Нет

Аудио #3
Идентификатор : 4
Формат : AC-3
Формат/Информация : Audio Coding 3
Расширение режима : CM (complete main)
Параметр Endianness формата : Big
Идентификатор кодека : A_AC3
Продолжительность : 1 ч. 49 м.
Вид битрейта : Постоянный
Битрейт : 448 Кбит/сек
Каналы : 6 каналов
Расположение каналов : Front: L C R, Side: L R, LFE
Частота : 48,0 КГц
Частота кадров : 31,250 кадров/сек (1536 spf)
Битовая глубина : 16 бит
Метод сжатия : С потерями
Размер потока : 352 Мбайт (17%)
Заголовок : Original
Язык : English
Default : Нет
Forced : Нет

Текст #1
Идентификатор : 5
Формат : UTF-8
Идентификатор кодека : S_TEXT/UTF8
Идентификатор кодека/Информация : UTF-8 Plain Text
Продолжительность : 1 ч. 47 м.
Битрейт : 0 бит/сек
Count of elements : 8
Размер потока : 252 байт (0%)
Заголовок : Forced
Язык : Russian
Default : Да
Forced : Нет

Текст #2
Идентификатор : 6
Формат : UTF-8
Идентификатор кодека : S_TEXT/UTF8
Идентификатор кодека/Информация : UTF-8 Plain Text
Продолжительность : 1 ч. 44 м.
Битрейт : 126 бит/сек
Count of elements : 1986
Размер потока : 97,3 Кбайт (0%)
Заголовок : Full
Язык : Russian
Default : Нет
Forced : Нет

Текст #3
Идентификатор : 7
Формат : UTF-8
Идентификатор кодека : S_TEXT/UTF8
Идентификатор кодека/Информация : UTF-8 Plain Text
Продолжительность : 1 ч. 45 м.
Битрейт : 80 бит/сек
Count of elements : 2021
Размер потока : 61,7 Кбайт (0%)
Заголовок : Full
Язык : English
Default : Нет
Forced : Нет

Текст #4
Идентификатор : 8
Формат : UTF-8
Идентификатор кодека : S_TEXT/UTF8
Идентификатор кодека/Информация : UTF-8 Plain Text
Продолжительность : 1 ч. 47 м.
Битрейт : 91 бит/сек
Count of elements : 2268
Размер потока : 71,8 Кбайт (0%)
Заголовок : SDH
Язык : English
Default : Нет
Forced : Нет

Меню
00:00:00.000 : en:Chapter 01
00:04:13.795 : en:Chapter 02
00:08:38.893 : en:Chapter 03
00:13:51.121 : en:Chapter 04
00:18:04.041 : en:Chapter 05
00:25:37.994 : en:Chapter 06
00:29:25.138 : en:Chapter 07
00:33:52.321 : en:Chapter 08
00:42:03.229 : en:Chapter 09
00:47:46.613 : en:Chapter 10
00:54:15.043 : en:Chapter 11
00:59:24.435 : en:Chapter 12
01:02:49.390 : en:Chapter 13
01:05:40.770 : en:Chapter 14
01:09:55.399 : en:Chapter 15
01:17:11.501 : en:Chapter 16
01:20:03.298 : en:Chapter 17
01:22:22.687 : en:Chapter 18
01:24:27.562 : en:Chapter 19
01:27:52.850 : en:Chapter 20
01:32:35.633 : en:Chapter 21
01:38:17.433 : en:Chapter 22
01:41:13.192 : en:Chapter 23
01:45:44.963 : en:Chapter 24

pb.wtf



Скачать С любовью, Саймон через торрент http://lostpix.com/img/2018-06/11/6qvgmajfjhmqz47b54gy0t8ks.jpg Скачать фильм С любовью, Саймон через торрент бесплантно в хорошем качестве Описание: Старшеклассник Саймон скрывает от друзей свою гомосексуальность, но его переписка с анонимным возлюбленным попадает в чужие руки. ... 6.8 10 8
Info! Золотая раздача, скачанное не засчитывается.
Торрент: Зарегистрирован [2018-07-13 14:30] · скачан: 349 раз
Статус: √ проверено
Размер: 2.06 GB
Как cкачать? Как скачать С любовью, Саймон через торрент | qTorrent

% Раздел Тема Автор DL S | L
Фильмы 2018 [DVDrip, WEB-DLRip, HDrip] (DUB, MVO) [ 1.41 GB ] С любовью Саймон / Love Simon [2018 BDRip] MVO bober100 Скачать
2 | 0
Фильмы [HD 720p, 1080p] (Хороший звук DUB, MVO) [ 5.46 GB ] С любовью Саймон / Love Simon [2018 BDRip 720p] 2xMVO [HDRezka Studio ] bober100 Скачать
1 | 0
Фильмы 2018 [DVDrip, WEB-DLRip, HDrip] (DUB, MVO) [ 711 MB ] С любовью Саймон / Love Simon [2018 HDRip многоголосый закадровый ""] coc900 Скачать
1 | 0
Фильмы (Blu-ray, BD-Remux, HDDVD) [ 27.25 GB ] С любовью Саймон / Love Simon [2018 BD Remux 1080p] 2xMVO [HDRezka Studio ] bober100 Скачать
1 | 0
Фильмы [HD 720p, 1080p] (Хороший звук DUB, MVO) [ 11.73 GB ] С любовью Саймон / Love Simon [2018 BDRip 1080p] 2xMVO [HDRezka Studio ] bober100 Скачать
2 | 0
Ultra HD (UHD: 2K, 4K, 8K) — видео сверхвысокой чёткости [ 53.2 GB ] С любовью Саймон / Love Simon [2018 UHD BDRemux 2160p] 2xMVO [HDRezka Studio ] bober100 Скачать
1 | 0

28-11-2019 20:33  

Отключить всю рекламу на сайте

16-07-2018 19:49 С любовью, Саймон Скачать торрент  

Какая дрянь!pb.wtf



17-07-2018 14:32 С любовью, Саймон Скачать торрент  

a_r_m писал(а):

Какая дрянь!

Вон, по меньшей мере 50к педиков на IMDB поставили высокий рейтинг на эту дичь)))pb.wtf



17-07-2018 15:53 С любовью, Саймон Скачать торрент  

Пиндосы вообще подурели, пропагандируют гейство pb.wtf



17-07-2018 15:55 С любовью, Саймон Скачать торрент  

хотя чему я удивляюсьpb.wtf



17-07-2018 18:32 С любовью, Саймон Скачать торрент  

фильм про педиков, для педиков так и укажите рядом сназваниемpb.wtf



    Дорогой пользователь! Огромная просьба, поблагодарите релизера, оцените раздачу и оставьте свои комментарий, если Вы скачали С любовью, Саймон через торрент бесплатно! Внесите свою лепту в развитие PiratBit!
    Комментировать посты могут только пользователи прошедшие не сложную регистрацию
    Показать сообщения:    

    С любовью, Саймон через торрент
    Скачать бесплатно С любовью, Саймон
    С любовью, Саймон скачать торрент
    С любовью, Саймон смотреть онлайн
    Cкачать фильм С любовью, Саймон бесплатно
    С любовью, Саймон скачать торрент в хорошем качестве
    С любовью, Саймон смотреть онлайн бесплатно в хорошем качестве


    Вы не можете начинать темы
    Вы не можете отвечать на сообщения
    Вы не можете редактировать свои сообщения
    Вы не можете удалять свои сообщения
    Вы не можете голосовать в опросах
    Вы не можете прикреплять файлы к сообщениям
    Вы можете скачивать файлы