Ссылка на приватное зеркало всего за 1$. Внимание количество ограничено!!!

OK

1+1

iTunes

мы

OK

1

WEB-DLRip

Джокер

Пифагор

Ведьмак / The Witcher сериал

iTunes

ПШазам

ОК

Оно 2

iTunes

30
pack

Вам бонус

ВАЖНО

!!Акция!!

Alien_RageХит недели

RePack

Resident Evil 21

ИГРА 18+

pack

RePack

jed

RePack

fifa19

RePack

Assassins Creed: Odyssey

RePack

NEED FOR SPEED™ PAYBACK

4 сезон

9 сезон

Бесстыжие 9 сезон

Все сериалы

все сериалы на PB.wtf

RePack

FAR CRY 5
  

Мистер Икс / Mr. X (Викрам Бхатт) [2015, фантастика, боевик, триллер, криминал, WEB-DL 720p] MVO [официальный звук] pb.wtf

Мистер Икс через торрент pb.wtf

Размер: 4.4 GB | Добавлен: 1 год 6 мес. назад | Торрент скачан:74 раза
Скачать  

13-07-2018 15:59 Мистер Икс Скачать торрент  

Мистер Икс / Mr. X
Год выпуска: 2015
Страна: Индия
Жанр: фантастика, боевик, триллер, криминал
Продолжительность: 02:07:54
Перевод: Профессиональный многоголосый | официальный звук
Субтитры: отсутствуют

Режиссер: Викрам Бхатт

rating

В ролях:

Эмран Хашми, Амира Дастур, Арунодай Синкх, Нора Фатехи, Шрути Улфат, С.М. Захир, Гурмит Чаудхари

Описание:

Хороший и честный полицейский - Рагхурам Ратод, чудом смог остаться живым во время взрыва. Однако этот взрыв дал невероятные последствия, у Рагхура появилась новая способность, он теперь мог становиться абсолютно прозрачным и не видимым для всех. Решив использовать свою новую возможность во благо, Рагхур решает отыскать и придать правосудию тех, кто виновен в этом страшном взрыве.

Качество: WEB-DL 720p
Формат: MKV

Видео: h.264, 4 538 kb/s, 1280x550
Аудио#1: Русский, (AC3, 2 ch, 384 Кбит/с)
скриншот  скриншот  скриншот  

Общее
Уникальный идентификатор : 230053134707502323425182771784603614782 (0xAD129F418237F68B8594331EF7273E3E)
Полное имя : D:\Mr.X.2015.Pof.WEB-DL.720p_KOSHARA.mkv
Формат : Matroska
Версия формата : Version 2
Размер файла : 4,40 Гбайт
Продолжительность : 2 ч. 7 м.
Режим общего битрейта : Переменный
Общий поток : 4924 Кбит/сек
Дата кодирования : UTC 2018-07-13 04:31:45
Программа кодирования : mkvmerge v8.3.0 ('Over the Horizon') 64bit
Библиотека кодирования : libebml v1.3.1 + libmatroska v1.4.2

Видео
Идентификатор : 1
Формат : AVC
Формат/Информация : Advanced Video Codec
Профиль формата : High@L4.1
Параметр CABAC формата : Да
Параметр RefFrames формата : 4 кадра
Идентификатор кодека : V_MPEG4/ISO/AVC
Продолжительность : 2 ч. 7 м.
Вид битрейта : Переменный
Битрейт : 4538 Кбит/сек
Максимальный битрейт : 5000 Кбит/сек
Ширина : 1280 пикселей
Высота : 550 пикселей
Соотношение сторон : 2,35:1
Режим частоты кадров : Постоянный
Частота кадров : 23,976 (24000/1001) кадра/сек
Стандарт вещания : Component
Цветовое пространство : YUV
Субдискретизация насыщенности : 4:2:0
Битовая глубина : 8 бит
Тип развёртки : Прогрессивная
Бит/(Пиксели*Кадры) : 0.263
Размер потока : 3,97 Гбайт (90%)
Default : Да
Forced : Нет
Цветовой диапазон : Limited
Основные цвета : BT.709
Характеристики трансфера : BT.709
Коэффициенты матрицы : BT.709

Аудио
Идентификатор : 2
Формат : AC-3
Формат/Информация : Audio Coding 3
Расширение режима : CM (complete main)
Параметр Endianness формата : Big
Идентификатор кодека : A_AC3
Продолжительность : 2 ч. 7 м.
Вид битрейта : Постоянный
Битрейт : 384 Кбит/сек
Каналы : 2 канала
Расположение каналов : Front: L R
Частота : 48,0 КГц
Частота кадров : 31,250 кадров/сек (1536 spf)
Метод сжатия : С потерями
Размер потока : 351 Мбайт (8%)
Default : Да
Forced : Нет

pb.wtf



Скачать Мистер Икс через торрент https://img11.lostpic.net/2018/07/13/ad1ba4170c54b53b291243e342ccc59c.jpg Скачать фильм Мистер Икс через торрент бесплантно в хорошем качестве Описание: Хороший и честный полицейский - Рагхурам Ратод, чудом смог остаться живым во время взрыва. Однако этот взрыв дал невероятные ... 10 10 2
Торрент: Зарегистрирован [2018-07-13 15:59] · скачан: 74 раз
Статус: T временная
Размер: 4.4 GB
Как cкачать? Как скачать Мистер Икс через торрент | qTorrent

% Раздел Тема Автор DL S | L
T Фильмы (мультфильмы) cо спонсором показа (Новинки AVI/MKV) [ 2.05 GB ] Мистер Икс / Mr. X [2015 WEB-DLRip] MVO [официальный звук] bober100 Скачать
1 | 0
T Фильмы (мультфильмы) cо спонсором показа (Новинки AVI/MKV) [ 1.37 GB ] Мистер Икс / Mr. X [2015 WEB-DLRip] MVO [официальный звук] bober100 Скачать
1 | 0


Последний раз редактировалось: bober100 (2018-07-13 17:11), всего редактировалось 1 раз

28-11-2019 20:33  

Отключить всю рекламу на сайте

13-07-2018 16:14 Мистер Икс Скачать торрент  

Блин как можно ошибаться ; я-то подумал что индусы взяли за образец нашего Мистера Х и чувак будет наяривать на скрипке в маске Зорро ну и вплясывать свои танцы а тут такой конфуз...Кто в силах просмотрите-отпишитесьpb.wtf



13-07-2018 16:47 Мистер Икс Скачать торрент  

Исправьте пожалуйста про звук в названий) "[фициальный звук]"pb.wtf



13-07-2018 17:11 Мистер Икс Скачать торрент  

X-Demonik писал(а):

Исправьте пожалуйста про звук в названий) "[фициальный звук]"

Спасибо поправил) pb.wtf



    Дорогой пользователь! Огромная просьба, поблагодарите релизера, оцените раздачу и оставьте свои комментарий, если Вы скачали Мистер Икс через торрент бесплатно! Внесите свою лепту в развитие PiratBit!
    Комментировать посты могут только пользователи прошедшие не сложную регистрацию
    Показать сообщения:    

    Мистер Икс через торрент
    Скачать бесплатно Мистер Икс
    Мистер Икс скачать торрент
    Мистер Икс смотреть онлайн
    Cкачать фильм Мистер Икс бесплатно
    Мистер Икс скачать торрент в хорошем качестве
    Мистер Икс смотреть онлайн бесплатно в хорошем качестве


    Вы не можете начинать темы
    Вы не можете отвечать на сообщения
    Вы не можете редактировать свои сообщения
    Вы не можете удалять свои сообщения
    Вы не можете голосовать в опросах
    Вы не можете прикреплять файлы к сообщениям
    Вы можете скачивать файлы