Всегда рабочее зеркало без VPN и Proxy просто перед .vidak.icu напиши любое слово или цифру, Пример http://bord.vidak.icu

Лицензия

MVO

1 сезон

1

1 сезон

iTunes

1 сезон

13

1 сезон

Deluxe

pack

Рекомендуем

Repack

30

ВАЖНО

RePack

MK11

RePack

jed

RePack

fifa19

RePack

RDR2

RePack

NEED FOR SPEED™ PAYBACK

Кинопоиск HD

6 сезон

 Острые козырьки 6 сезон

Все сериалы

все сериалы на PB.wtf

RePack

FAR CRY 5
  
Magnet ссылка

Первому игроку приготовиться / Ready Player One (Стивен Спилберг) [2018, фантастика, боевик, приключения, UHD BDRip 2160p SDR] DUB (rus, ukr) + MVO [HDRezka Studio] pb.wtf

Первому игроку приготовиться через торрент pb.wtf

Размер: 48.03 GB | Добавлен: 4 года 1 мес. назад | Торрент скачан:110 раз
Смотреть онлайн Первому игроку приготовиться | Скачать    Ребята, помогите собрать деньги на оплату серверов!!!

13-07-2018 17:30 Первому игроку приготовиться Скачать торрент  

Первому игроку приготовиться / Ready Player One«Загрузи новую реальность»
Год выпуска: 2018
Страна: США
Жанр: фантастика, боевик, приключения
Продолжительность: 02:19:58
Перевод: Дублированный, Профессиональный многоголосый
Субтитры: Русские, английские, украинские
Режиссер: Стивен Спилберг
В ролях:

Тай Шеридан (Parzival / Wade), Оливия Кук (Art3mis / Samantha), Бен Мендельсон (Sorrento), Лина Уэйте (Aech / Helen), ТиДжей Миллер (I-R0k), Саймон Пегг (Ogden Morrow), Марк Райлэнс (Anorak / Halliday), Филип Чжао (Sho), Уин Морисаки (Daito), Ханна Джон-Кэймен (F'Nale Zandor), Ралф Айнесон (Rick), Сьюзэн Линч (Alice)
Описание:
Действие фильма происходит в 2045 году, мир погружается в хаос и находится на грани коллапса. Люди ищут спасения в игре OASIS - огромной вселенной виртуальной реальности. Ее создатель, гениальный и эксцентричный Джеймс Холлидэй, оставляет уникальное завещание. Все его колоссальное состояние получит игрок, первым обнаруживший цифровое «пасхальное яйцо», которое миллиардер спрятал где-то на просторах OASISа. Запущенный им квест охватывает весь мир. Совершенно негероический парень по имени Уэйд Уоттс решает принять участие в состязании, с головой бросаясь в головокружительную, искажающую реальность погоню за сокровищами по фантастической вселенной, полной загадок, открытий и опасностей.
Рейтинг:

MPAA: PG-13 - Детям до 13 лет просмотр не желателен
Качество: UHD BDRip 2160p SDR
Контейнер: MKV
Видео: MPEG-4 AVC, 3840x1606 (2.40:1), 23.976 fps, 40.4 Mb/s 0.273 bit/pixel
Аудио #1: AC-3, 48.0 kHz, 6 ch, 384 kb/s, CBR (Russian)
Аудио #2: AC-3, 48.0 kHz, 2 ch, 192 kb/s, CBR (Russian)
Аудио #3: AC-3, 48.0 kHz, 2 ch, 192 kb/s, CBR (Ukrainian)
Аудио #4: TrueHD TrueHD+Atmos / TrueHD, / 48.0 kHz, Object Based / 8 ch, 3 218 kb/s, VBR (English)
Аудио #5: DTS MA / Core, 48.0 kHz, 8 / 6 ch, 4 184 kb/s / 1 509 kb/s, VBR / CBR (English)
Аудио #6: AC-3, 48.0 kHz, 6 ch, 448 kb/s, CBR (English)
Оригинальные главы присутствуют
Общее
Уникальный идентификатор : 205487386970731504844589812756572537708 (0x9A976E618E42B95E695241CA3330036C)
Полное имя : Ready.Player.One.2018.2160p.UHD.BDRip.x264.8bit.SDR.IVA(2xRUS.UKR.ENG).ExKinoRay.mkv
Формат : Matroska
Версия формата : Version 4 / Version 2
Размер файла : 48,0 Гбайт
Продолжительность : 2 ч. 19 м.
Режим общего битрейта : Переменный
Общий поток : 49,1 Мбит/сек
Название фильма : Первому игроку приготовиться / Ready Player One ( 2018 ) UHD BDRip | SDR, 4K | IVA(2xRUS.UKR.ENG) | ExKinoRay
Дата кодирования : UTC 2018-07-13 15:01:49
Программа кодирования : mkvmerge v24.0.0 ('Beyond The Pale') 64-bit
Библиотека кодирования : libebml v1.3.6 + libmatroska v1.4.9
Обложка : Yes
Attachments : cover

Видео
Идентификатор : 1
Формат : AVC
Формат/Информация : Advanced Video Codec
Профиль формата : [email protected]
Настройки формата : CABAC / 5 Ref Frames
Параметр CABAC формата : Да
Параметр RefFrames формата : 5 кадров
Идентификатор кодека : V_MPEG4/ISO/AVC
Продолжительность : 2 ч. 19 м.
Битрейт : 40,4 Мбит/сек
Ширина : 3840 пикселей
Высота : 1606 пикселей
Соотношение сторон : 2,40:1
Режим частоты кадров : Постоянный
Частота кадров : 23,976 (24000/1001) кадра/сек
Цветовое пространство : YUV
Субдискретизация насыщенности : 4:2:0
Битовая глубина : 8 бит
Тип развёртки : Прогрессивная
Бит/(Пиксели*Кадры) : 0.273
Размер потока : 39,5 Гбайт (82%)
Заголовок : Ready.Player.One.2018.2160p.BDRip.x264.8bit.SDR
Библиотека кодирования : x264 core 155 r2901 7d0ff22
Настройки программы : cabac=1 / ref=5 / deblock=1:-1:-1 / analyse=0x3:0x113 / me=umh / subme=10 / psy=1 / psy_rd=1.00:0.15 / mixed_ref=1 / me_range=48 / chroma_me=1 / trellis=2 / 8x8dct=1 / cqm=0 / deadzone=21,11 / fast_pskip=1 / chroma_qp_offset=-3 / threads=50 / lookahead_threads=4 / sliced_threads=0 / nr=0 / decimate=0 / interlaced=0 / bluray_compat=0 / constrained_intra=0 / bframes=3 / b_pyramid=2 / b_adapt=2 / b_bias=0 / direct=3 / weightb=1 / open_gop=0 / weightp=2 / keyint=250 / keyint_min=23 / scenecut=40 / intra_refresh=0 / rc_lookahead=50 / rc=crf / mbtree=1 / crf=18.0 / qcomp=0.60 / qpmin=0 / qpmax=69 / qpstep=4 / ip_ratio=1.40 / aq=1:1.00
Язык : English
Default : Да
Forced : Нет

Аудио #1
Идентификатор : 2
Формат : AC-3
Формат/Информация : Audio Coding 3
Идентификатор кодека : A_AC3
Продолжительность : 2 ч. 19 м.
Вид битрейта : Постоянный
Битрейт : 384 Кбит/сек
Каналы : 6 каналов
Расположение каналов : Front: L C R, Side: L R, LFE
Частота : 48,0 КГц
Частота кадров : 31,250 кадров/сек (1536 SPF)
Битовая глубина : 16 бит
Метод сжатия : С потерями
Размер потока : 384 Мбайт (1%)
Заголовок : | Дублированный |
Язык : Russian
ServiceKind/String : Complete Main
Default : Да
Forced : Да

Аудио #2
Идентификатор : 3
Формат : AC-3
Формат/Информация : Audio Coding 3
Идентификатор кодека : A_AC3
Продолжительность : 2 ч. 19 м.
Вид битрейта : Постоянный
Битрейт : 192 Кбит/сек
Каналы : 2 канала
Расположение каналов : Front: L R
Частота : 48,0 КГц
Частота кадров : 31,250 кадров/сек (1536 SPF)
Битовая глубина : 16 бит
Метод сжатия : С потерями
Размер потока : 192 Мбайт (0%)
Заголовок : | MVO, HDRezka |
Язык : Russian
ServiceKind/String : Complete Main
Default : Нет
Forced : Нет

Аудио #3
Идентификатор : 4
Формат : AC-3
Формат/Информация : Audio Coding 3
Идентификатор кодека : A_AC3
Продолжительность : 2 ч. 19 м.
Вид битрейта : Постоянный
Битрейт : 192 Кбит/сек
Каналы : 2 канала
Расположение каналов : Front: L R
Частота : 48,0 КГц
Частота кадров : 31,250 кадров/сек (1536 SPF)
Битовая глубина : 16 бит
Метод сжатия : С потерями
Размер потока : 192 Мбайт (0%)
Заголовок : | Дублированный |
Язык : Ukrainian
ServiceKind/String : Complete Main
Default : Нет
Forced : Да

Аудио #4
Идентификатор : 5
Формат : TrueHD
Профиль формата : TrueHD+Atmos / TrueHD
Идентификатор кодека : A_TRUEHD
Продолжительность : 2 ч. 19 м.
Вид битрейта : Переменный
Битрейт : 3218 Кбит/сек
Максимальный битрейт : 5004 Кбит/сек
Каналы : Object Based / 8 каналов
Расположение каналов : Object Based / Front: L C R, Side: L R, Back: L R, LFE
Частота : / 48,0 КГц
Частота кадров : 1200,000 кадров/сек (40 SPF)
Метод сжатия : Без потерь
Размер потока : 3,15 Гбайт (7%)
Заголовок : | Original |
Язык : English
Default : Нет
Forced : Нет

Аудио #5
Идентификатор : 6
Формат : DTS
Формат/Информация : Digital Theater Systems
Профиль формата : MA / Core
Идентификатор кодека : A_DTS
Продолжительность : 2 ч. 19 м.
Вид битрейта : Переменный / Постоянный
Битрейт : 4184 Кбит/сек / 1509 Кбит/сек
Каналы : 8 каналов / 6 каналов
Расположение каналов : Front: L C R, Side: L R, Back: L R, LFE / Front: L C R, Side: L R, LFE
Частота : 48,0 КГц
Частота кадров : 93,750 кадра/сек (512 SPF)
Битовая глубина : 24 бит
Метод сжатия : Без потерь / Lossy
Размер потока : 4,09 Гбайт (9%)
Заголовок : | Original |
Язык : English
Default : Нет
Forced : Нет

Аудио #6
Идентификатор : 7
Формат : AC-3
Формат/Информация : Audio Coding 3
Идентификатор кодека : A_AC3
Продолжительность : 2 ч. 19 м.
Вид битрейта : Постоянный
Битрейт : 448 Кбит/сек
Каналы : 6 каналов
Расположение каналов : Front: L C R, Side: L R, LFE
Частота : 48,0 КГц
Частота кадров : 31,250 кадров/сек (1536 SPF)
Битовая глубина : 16 бит
Метод сжатия : С потерями
Размер потока : 448 Мбайт (1%)
Заголовок : | Original, AC3 Core |
Язык : English
ServiceKind/String : Complete Main
Default : Нет
Forced : Нет

Текст #1
Идентификатор : 8
Формат : UTF-8
Идентификатор кодека : S_TEXT/UTF8
Идентификатор кодека/Информация : UTF-8 Plain Text
Продолжительность : 2 ч. 8 м.
Битрейт : 1 бит/сек
ElementCount : 34
Размер потока : 1,26 Кбайт (0%)
Заголовок : Forced
Язык : Russian
Default : Да
Forced : Да

Текст #2
Идентификатор : 9
Формат : UTF-8
Идентификатор кодека : S_TEXT/UTF8
Идентификатор кодека/Информация : UTF-8 Plain Text
Продолжительность : 2 ч. 19 м.
Битрейт : 1 бит/сек
ElementCount : 36
Размер потока : 1,67 Кбайт (0%)
Заголовок : Forced v.2 [Lic]
Язык : Russian
Default : Нет
Forced : Да

Текст #3
Идентификатор : 10
Формат : UTF-8
Идентификатор кодека : S_TEXT/UTF8
Идентификатор кодека/Информация : UTF-8 Plain Text
Продолжительность : 2 ч. 10 м.
Битрейт : 92 бит/сек
ElementCount : 1411
Размер потока : 88,3 Кбайт (0%)
Заголовок : Full
Язык : Russian
Default : Нет
Forced : Нет

Текст #4
Идентификатор : 11
Формат : UTF-8
Идентификатор кодека : S_TEXT/UTF8
Идентификатор кодека/Информация : UTF-8 Plain Text
Продолжительность : 2 ч. 8 м.
Битрейт : 95 бит/сек
ElementCount : 1581
Размер потока : 90,2 Кбайт (0%)
Заголовок : Full v.2
Язык : Russian
Default : Нет
Forced : Нет

Текст #5
Идентификатор : 12
Формат : UTF-8
Идентификатор кодека : S_TEXT/UTF8
Идентификатор кодека/Информация : UTF-8 Plain Text
Продолжительность : 2 ч. 18 м.
Битрейт : 2 бит/сек
ElementCount : 65
Размер потока : 2,95 Кбайт (0%)
Заголовок : Forced
Язык : Ukrainian
Default : Нет
Forced : Да

Текст #6
Идентификатор : 13
Формат : UTF-8
Идентификатор кодека : S_TEXT/UTF8
Идентификатор кодека/Информация : UTF-8 Plain Text
Продолжительность : 2 ч. 8 м.
Битрейт : 62 бит/сек
ElementCount : 1856
Размер потока : 59,0 Кбайт (0%)
Заголовок : Full
Язык : English
Default : Нет
Forced : Нет

Меню
00:00:00.000 : en:00:00:00.000
00:10:08.233 : en:00:10:08.233
00:20:18.259 : en:00:20:18.259
00:30:37.627 : en:00:30:37.627
00:40:38.269 : en:00:40:38.269
00:50:08.964 : en:00:50:08.964
01:03:01.778 : en:01:03:01.778
01:11:55.269 : en:01:11:55.269
01:20:14.727 : en:01:20:14.727
01:30:58.328 : en:01:30:58.328
01:43:26.742 : en:01:43:26.742
01:53:02.150 : en:01:53:02.150
02:04:20.161 : en:02:04:20.161
02:09:17.249 : en:02:09:17.249
pb.wtf



Скачать Первому игроку приготовиться через торрент https://d.radikal.ru/d31/1807/7f/79509565c542.png Скачать, смотреть онлайн Первому игроку приготовиться бесплантно в хорошем качестве Описание: Действие фильма происходит в 2045 году, мир погружается в хаос и находится на грани коллапса. Люди ищут спасения в игре OASIS - ... 10 10 9
Info! Золотая раздача, скачанное не засчитывается.
Торрент: Зарегистрирован [2018-07-13 17:30] · скачан: 110 раз
Статус: √ проверено
Размер: 48.03 GB
Как cкачать? Как скачать Первому игроку приготовиться через торрент | UTorrent

% Раздел Тема Автор DL S | L
Ultra HD (UHD: 2K, 4K, 8K) — видео сверхвысокой чёткости [ 42.98 GB ] Первому игроку приготовиться / Ready Player One [2018 UHD BDRip-HEVC 2160p ] [SDR] MVO [HDRezka Studio] +DUB [] bober100 Скачать
1 | 0
Ultra HD (UHD: 2K, 4K, 8K) — видео сверхвысокой чёткости [ 65.77 GB ] Первому игроку приготовиться / Ready Player One [2018 UHD BDRemux 2160p] MVO [HDRezka Studio] +DUB [] bober100 Скачать
1 | 0
T Фильмы 2018 [DVDrip, WEB-DLRip, HDrip] (DUB, MVO) [ 2.58 GB ] Первому игроку приготовиться / Ready Player One [2018 WEB-DLRip-AVC] MVO [HDRezka Studio] - ExKinoRay Enigma2010 Скачать
2 | 0
Фильмы [HD 720p, 1080p] (Хороший звук DUB, MVO) [ 7.16 GB ] Первому игроку приготовиться / Ready Player One [2018 BDRip 720p] MVO [HDRezka Studio] + bober100 Скачать
3 | 0
Фильмы (Blu-ray, BD-Remux, HDDVD) [ 37.89 GB ] Первому игроку приготовиться / Ready Player One [2018 BD Remux 1080p] [2D 3D] MVO [HDRezka Studio] +DUB [] bober100 Скачать
1 | 0
Фильмы (Blu-ray, BD-Remux, HDDVD) [ 25.39 GB ] Первому игроку приготовиться / Ready Player One [2018 BDRemux 1080p] + MVO [HDRezka Studio] sheker187 Скачать
1 | 0
Ultra HD (UHD: 2K, 4K, 8K) — видео сверхвысокой чёткости [ 25.45 GB ] Первому игроку приготовиться / Ready Player One [2018 UHD BDRip 2160p] DUB + MVO [HDrezka Studio] sheker187 Скачать
1 | 0

28-11-2019 20:33  

Отключить вcю реклaмy на сайте

    Дорогой пользователь! Огромная просьба, поблагодарите релизера, оцените раздачу и оставьте свои комментарий, если Вы скачали Первому игроку приготовиться через торрент бесплатно!
    Комментировать посты могут только пользователи прошедшие не сложную регистрацию
    Показать сообщения:    

    Первому игроку приготовиться через торрент
    Скачать бесплатно Первому игроку приготовиться
    Первому игроку приготовиться скачать торрент
    Первому игроку приготовиться смотреть онлайн
    Cкачать фильм Первому игроку приготовиться бесплатно
    Первому игроку приготовиться скачать торрент в хорошем качестве
    Первому игроку приготовиться смотреть онлайн бесплатно в хорошем качестве


    Вы не можете начинать темы
    Вы не можете отвечать на сообщения
    Вы не можете редактировать свои сообщения
    Вы не можете удалять свои сообщения
    Вы не можете голосовать в опросах
    Вы не можете прикреплять файлы к сообщениям
    Вы можете скачивать файлы