Ссылка на приватное зеркало всего за 1$. Внимание количество ограничено!!!

OK

1+1

iTunes

мы

OK

1

WEB-DLRip

Джокер

Пифагор

Ведьмак / The Witcher сериал

Лицензия

ПШазам

ОК

Оно 2

iTunes

30
pack

Вам бонус

ВАЖНО

!!Акция!!

Alien_RageХит недели

RePack

Resident Evil 21

ИГРА 18+

pack

RePack

jed

!!Акция!!

Alien_Rage

RePack

fifa19

RePack

Assassins Creed: Odyssey

RePack

NEED FOR SPEED™ PAYBACK

4 сезон

9 сезон

Бесстыжие 9 сезон

Все сериалы

все сериалы на PB.wtf

RePack

FAR CRY 5
  

Что воды оставили позади / Los Olvidados (Лучиано Онетти, Николас Онетти) [2017, ужасы, WEB-DL 720p] MVO [КОЛОБОК] pb.wtf

Что воды оставили позади через торрент pb.wtf

Размер: 3.17 GB | Добавлен: 1 год 6 мес. назад | Торрент скачан:188 раз
Скачать  

13-07-2018 18:06 Что воды оставили позади Скачать торрент  

Что воды оставили позади / Los Olvidados
Год выпуска: 2017
Страна: Аргентина, Новая Зеландия
Жанр: ужасы
Продолжительность: 01:38:16
Перевод: Любительский (многоголосый) | КОЛОБОК
Субтитры: отсутствуют

Режиссер: Лучиано Онетти, Николас Онетти

rating

В ролях:

Герман Баудино, Паула Браска, Мирта Буснелли, Викторио Д’Алессандро, Дамиан Дрейсик, Чучо Фернандес, Тамара Гарзон, Пабло Гиса Кёстингер, Виктория Мауретте, Августин Парделла

Описание:

Группа молодых людей отправляются на руины города Эпекуэн, который ранее был затоплен озером, а теперь является городом-призраком, чтобы снять о нём документальный фильм. Но чем дольше герои здесь остаются, тем сильнее им кажется, что они здесь не одни.

Качество: WEB-DL 720p
Формат: MKV

Видео: h.264, 4 431 Кбит/с,1280x528
Аудио#1: Русский, (AC3, 2 ch, 384 Кбит/с)
скриншот  скриншот  скриншот  

Общее
Уникальный идентификатор : 237231320452924228937945676469063424652 (0xB279172330357768906E1567AA7C9A8C)
Полное имя : D:\Ver Los Olvidados.2O17.Pk.WEB-DL.72Op.mkv
Формат : Matroska
Версия формата : Version 2
Размер файла : 3,17 Гбайт
Продолжительность : 1 ч. 34 м.
Режим общего битрейта : Переменный
Общий поток : 4817 Кбит/сек
Дата кодирования : UTC 2018-07-13 12:42:25
Программа кодирования : mkvmerge v8.3.0 ('Over the Horizon') 64bit
Библиотека кодирования : libebml v1.3.1 + libmatroska v1.4.2

Видео
Идентификатор : 1
Формат : AVC
Формат/Информация : Advanced Video Codec
Профиль формата : High@L4.1
Параметр CABAC формата : Да
Параметр RefFrames формата : 4 кадра
Идентификатор кодека : V_MPEG4/ISO/AVC
Продолжительность : 1 ч. 34 м.
Вид битрейта : Переменный
Битрейт : 4431 Кбит/сек
Максимальный битрейт : 5000 Кбит/сек
Ширина : 1280 пикселей
Высота : 528 пикселей
Соотношение сторон : 2,40:1
Режим частоты кадров : Постоянный
Частота кадров : 23,976 (24000/1001) кадра/сек
Стандарт вещания : Component
Цветовое пространство : YUV
Субдискретизация насыщенности : 4:2:0
Битовая глубина : 8 бит
Тип развёртки : Прогрессивная
Бит/(Пиксели*Кадры) : 0.268
Размер потока : 2,86 Гбайт (90%)
Default : Да
Forced : Нет
Цветовой диапазон : Limited
Основные цвета : BT.709
Характеристики трансфера : BT.709
Коэффициенты матрицы : BT.709

Аудио
Идентификатор : 2
Формат : AC-3
Формат/Информация : Audio Coding 3
Расширение режима : CM (complete main)
Параметр Endianness формата : Big
Идентификатор кодека : A_AC3
Продолжительность : 1 ч. 34 м.
Вид битрейта : Постоянный
Битрейт : 384 Кбит/сек
Каналы : 2 канала
Расположение каналов : Front: L R
Частота : 48,0 КГц
Частота кадров : 31,250 кадров/сек (1536 spf)
Метод сжатия : С потерями
Размер потока : 259 Мбайт (8%)
Default : Да
Forced : Нет

pb.wtf



Скачать Что воды оставили позади через торрент https://img11.lostpic.net/2018/07/13/c43276fd9a93dec029c73ba6d97cc05c.jpg Скачать фильм Что воды оставили позади через торрент бесплантно в хорошем качестве Описание: Группа молодых людей отправляются на руины города Эпекуэн, который ранее был затоплен озером, а теперь является ... 8.2 10 5
Торрент: Зарегистрирован [2018-07-13 18:06] · скачан: 188 раз
Статус: T временная
Размер: 3.17 GB
Как cкачать? Как скачать Что воды оставили позади через торрент | qTorrent

% Раздел Тема Автор DL S | L
T Фильмы (мультфильмы) cо спонсором показа (Новинки AVI/MKV) [ 1.37 GB ] Что воды оставили позади / Los Olvidados [2017 WEB-DLRip] MVO [КОЛОБОК] bober100 Скачать
1 | 0

28-11-2019 20:33  

Отключить всю рекламу на сайте

14-07-2018 21:55 Что воды оставили позади Скачать торрент  

адский трешь не тратьте времяpb.wtf



15-07-2018 15:12 Что воды оставили позади Скачать торрент  

неплохой фильмец.в стиле бензопилы.любителям жанра на разок просмотра самое то.pb.wtf



    Дорогой пользователь! Огромная просьба, поблагодарите релизера, оцените раздачу и оставьте свои комментарий, если Вы скачали Что воды оставили позади через торрент бесплатно! Внесите свою лепту в развитие PiratBit!
    Комментировать посты могут только пользователи прошедшие не сложную регистрацию
    Показать сообщения:    

    Что воды оставили позади через торрент
    Скачать бесплатно Что воды оставили позади
    Что воды оставили позади скачать торрент
    Что воды оставили позади смотреть онлайн
    Cкачать фильм Что воды оставили позади бесплатно
    Что воды оставили позади скачать торрент в хорошем качестве
    Что воды оставили позади смотреть онлайн бесплатно в хорошем качестве


    Вы не можете начинать темы
    Вы не можете отвечать на сообщения
    Вы не можете редактировать свои сообщения
    Вы не можете удалять свои сообщения
    Вы не можете голосовать в опросах
    Вы не можете прикреплять файлы к сообщениям
    Вы можете скачивать файлы