Ссылка на приватное зеркало нашего сайта всего за 1$. Внимание количество ограничено!!!

2 сезон

iTunes

1 сезон

1

iTunes

iTunes

iTunes

1 сезон

RePack

30

ИГРА 18+

pack

ВАЖНО

!!Акция!!

Alien_RageХит недели

RePack

MK11
pack

Забери бонус

RePack

jed

!!Акция!!

Alien_Rage

RePack

fifa19

RePack

Assassins Creed: Odyssey

RePack

NEED FOR SPEED™ PAYBACK

4 сезон

9 сезон

Бесстыжие 9 сезон

Все сериалы

все сериалы на PB.wtf

RePack

FAR CRY 5
  

Агенты А.Н.К.Л. / The Man from U.N.C.L.E. (Гай Ричи) [2015, Боевик, комедия, приключения, UHD WEBRip 2160p] [HDR] 4xAVO+DUB [Лицензия] pb.wtf

Агенты А.Н.К.Л. через торрент pb.wtf

Раздают: 1 [ 0 KB/s ]
Размер: 21.28 GB | Добавлен: 2 года 3 мес. назад | Торрент скачан:69 раз
Скачать  

13-07-2018 21:35 Агенты А.Н.К.Л. Скачать торрент  

Агенты А.Н.К.Л. / The Man from U.N.C.L.E.
Год выпуска: 2015
Страна: США
Жанр: Боевик, комедия, приключения
Продолжительность: 01:56:29
Перевод: Дублированный | Лицензия, Авторский
Субтитры: Русские (A.Matveev, iTunes), английские

Режиссер: Гай Ричи

rating

В ролях:

Генри Кавилл, Арми Хаммер, Алисия Викандер, Элизабет Дебики, Хью Грант, Лука Кальвани, Сильвестр Грот, Джаред Харрис, Кристиан Беркель, Миша Кузнецов, Марианна Ди Мартино, Джулиан Майкл Деустер, Андреа Каглиши, Риккардо Калваниз, Питер Старк, Дэвид Менкин, Пабло Скола, Чезаре Таурази, Риккардо Фламмини

Описание:

Наполеон Соло — агент ЦРУ, на счету которого огромное количество успешно проведенных операций. Он считается одним из лучших секретных агентов во всем мире и с ним может сравниться только один человек — самый молодой и перспективный агент КГБ, Илья Курякин. Их противостояние переросло в настоящую войну в которой никто не собирается уступать. Однако обстоятельства складываются так, что непримиримые враги вынуждены стать напарниками. Это происходит после того как спецслужбы двух стран обнаруживают международную преступную организацию, которой удалось создать ядерную бомбу…

Качество: UHD WEBRip 2160p | HDR
Формат: MKV

Видео: HEVC HDR, 22.0 Mбит/с, 3840x1608, 23.976 кадр/с
Аудио#1: Русский (АС3, 6 ch, 448 Кбит/с, 48.0 KHz) / Дубляж (Blu-ray CEE)
Аудио#2: Русский (АС3, 6 ch, 640 Кбит/с, 48.0 KHz) / Авторский (Д.Есарев)
Аудио#3: Русский (АС3, 6 ch, 640 Кбит/с, 48.0 KHz) / Авторский (А.Матвеев)
Аудио#4: Русский (АС3, 6 ch, 448 Кбит/с, 48.0 KHz) / Авторский (Ю.Сербин)
Аудио#5: Русский (АС3, 6 ch, 448 Кбит/с, 48.0 KHz) / Авторский (А.Гаврилов)
Аудио#6: Английский (DTS, 6 ch, 1509 Кбит/с, 48.0 KHz)
скриншот  скриншот  скриншот  скриншот  скриншот  

Unique ID : 132594211543687420891902088173233817387 (0x63C0B75BED3D181469BD24BCC03AC72B)
Complete name : C:UsersPublicVideosSample VideosFilmyThe.Man.from.U.N.C.L.E.2015.2160p.HDR.WEBRip.MediaClub.mkv
Format : Matroska
Format version : Version 4 / Version 2
File size : 21.3 GiB
Duration : 1 h 56 min
Overall bit rate : 26.2 Mb/s
Encoded date : UTC 2018-07-06 17:49:04
Writing application : mkvmerge v19.0.0 ('Brave Captain') 64-bit
Writing library : libebml v1.3.5 + libmatroska v1.4.8
Cover : Yes
Attachments : cover.jpg

Video
ID : 1
Format : HEVC
Format/Info : High Efficiency Video Coding
Commercial name : HDR10
Format profile : Main 10@L5@Main
Codec ID : V_MPEGH/ISO/HEVC
Duration : 1 h 56 min
Bit rate : 22.0 Mb/s
Width : 3 840 pixels
Height : 1 600 pixels
Display aspect ratio : 2.40:1
Frame rate mode : Constant
Frame rate : 23.976 (24000/1001) FPS
Color space : YUV
Chroma subsampling : 4:2:0
Bit depth : 10 bits
Bits/(Pixel*Frame) : 0.150
Stream size : 17.9 GiB (84%)
Title : WEBRip.2160p.HDR by Silverok
Writing library : x265 2.6+31-3712d13c09bf:[Windows][GCC 7.2.0][64 bit] 10bit
Encoding settings : cpuid=1173503 / frame-threads=3 / numa-pools=8 / wpp / no-pmode / no-pme / no-psnr / no-ssim / log-level=2 / input-csp=1 / input-res=3840x1600 / interlace=0 / total-frames=167490 / level-idc=0 / high-tier=1 / uhd-bd=0 / ref=3 / no-allow-non-conformance / repeat-headers / annexb / no-aud / no-hrd / info / hash=0 / no-temporal-layers / open-gop / min-keyint=23 / keyint=250 / gop-lookahead=0 / bframes=4 / b-adapt=2 / b-pyramid / bframe-bias=0 / rc-lookahead=20 / lookahead-slices=8 / scenecut=40 / radl=0 / no-intra-refresh / ctu=64 / min-cu-size=8 / no-rect / no-amp / max-tu-size=32 / tu-inter-depth=1 / tu-intra-depth=1 / limit-tu=0 / rdoq-level=0 / dynamic-rd=0.00 / no-ssim-rd / signhide / no-tskip / nr-intra=0 / nr-inter=0 / no-constrained-intra / strong-intra-smoothing / max-merge=2 / limit-refs=3 / no-limit-modes / me=1 / subme=2 / merange=57 / temporal-mvp / weightp / no-weightb / no-analyze-src-pics / deblock=0:0 / sao / no-sao-non-deblock / rd=3 / no-early-skip / rskip / no-fast-intra / no-tskip-fast / no-cu-lossless / no-b-intra / no-splitrd-skip / rdpenalty=0 / psy-rd=2.00 / psy-rdoq=0.00 / no-rd-refine / no-lossless / cbqpoffs=0 / crqpoffs=0 / rc=crf / crf=13.0 / qcomp=0.60 / qpstep=4 / stats-write=0 / stats-read=0 / ipratio=1.40 / pbratio=1.30 / aq-mode=1 / aq-strength=1.00 / cutree / zone-count=0 / no-strict-cbr / qg-size=32 / no-rc-grain / qpmax=69 / qpmin=0 / no-const-vbv / sar=0 / overscan=0 / videoformat=5 / range=0 / colorprim=9 / transfer=16 / colormatrix=9 / chromaloc=0 / display-window=0 / master-display=G(13250,34500)B(7500,3000)R(34000,16000)WP(15635,16450)L(39990000,50) / max-cll=4000,1000 / min-luma=0 / max-luma=1023 / log2-max-poc-lsb=8 / vui-timing-info / vui-hrd-info / slices=1 / no-opt-qp-pps / no-opt-ref-list-length-pps / no-multi-pass-opt-rps / scenecut-bias=0.05 / no-opt-cu-delta-qp / no-aq-motion / hdr / hdr-opt / no-dhdr10-opt / analysis-reuse-level=5 / scale-factor=0 / refine-intra=0 / refine-inter=0 / refine-mv=0 / no-limit-sao / ctu-info=0 / no-lowpass-dct / refine-mv-type=0 / copy-pic=1
Default : Yes
Forced : No
Color range : Limited
Color primaries : BT.2020
Transfer characteristics : PQ
Matrix coefficients : BT.2020 non-constant
Mastering display color primaries : Display P3
Mastering display luminance : min: 0.0050 cd/m2, max: 3999 cd/m2
Maximum Content Light Level : 4000 cd/m2
Maximum Frame-Average Light Level : 1000 cd/m2

Audio #1
ID : 2
Format : AC-3
Format/Info : Audio Coding 3
Codec ID : A_AC3
Duration : 1 h 56 min
Bit rate mode : Constant
Bit rate : 448 kb/s
Channel(s) : 6 channels
Channel positions : Front: L C R, Side: L R, LFE
Sampling rate : 48.0 kHz
Frame rate : 31.250 FPS (1536 SPF)
Bit depth : 16 bits
Compression mode : Lossy
Stream size : 373 MiB (2%)
Title : Дубляж [Blu-ray CEE]
Language : Russian
Service kind : Complete Main
Default : Yes
Forced : No

Audio #2
ID : 3
Format : AC-3
Format/Info : Audio Coding 3
Codec ID : A_AC3
Duration : 1 h 56 min
Bit rate mode : Constant
Bit rate : 640 kb/s
Channel(s) : 6 channels
Channel positions : Front: L C R, Side: L R, LFE
Sampling rate : 48.0 kHz
Frame rate : 31.250 FPS (1536 SPF)
Bit depth : 16 bits
Compression mode : Lossy
Stream size : 533 MiB (2%)
Title : AVO - Д.Есарев
Language : Russian
Service kind : Complete Main
Default : No
Forced : No

Audio #3
ID : 4
Format : AC-3
Format/Info : Audio Coding 3
Codec ID : A_AC3
Duration : 1 h 56 min
Bit rate mode : Constant
Bit rate : 640 kb/s
Channel(s) : 6 channels
Channel positions : Front: L C R, Side: L R, LFE
Sampling rate : 48.0 kHz
Frame rate : 31.250 FPS (1536 SPF)
Bit depth : 16 bits
Compression mode : Lossy
Stream size : 533 MiB (2%)
Title : AVO - А.Матвеев
Language : Russian
Service kind : Complete Main
Default : No
Forced : No

Audio #4
ID : 5
Format : AC-3
Format/Info : Audio Coding 3
Codec ID : A_AC3
Duration : 1 h 56 min
Bit rate mode : Constant
Bit rate : 448 kb/s
Channel(s) : 6 channels
Channel positions : Front: L C R, Side: L R, LFE
Sampling rate : 48.0 kHz
Frame rate : 31.250 FPS (1536 SPF)
Bit depth : 16 bits
Compression mode : Lossy
Stream size : 373 MiB (2%)
Title : AVO - Ю.Сербин
Language : Russian
Service kind : Complete Main
Default : No
Forced : No

Audio #5
ID : 6
Format : AC-3
Format/Info : Audio Coding 3
Codec ID : A_AC3
Duration : 1 h 56 min
Bit rate mode : Constant
Bit rate : 448 kb/s
Channel(s) : 6 channels
Channel positions : Front: L C R, Side: L R, LFE
Sampling rate : 48.0 kHz
Frame rate : 31.250 FPS (1536 SPF)
Bit depth : 16 bits
Compression mode : Lossy
Stream size : 373 MiB (2%)
Title : AVO - А.Гаврилов
Language : Russian
Service kind : Complete Main
Default : No
Forced : No

Audio #6
ID : 7
Format : DTS
Format/Info : Digital Theater Systems
Codec ID : A_DTS
Duration : 1 h 56 min
Bit rate mode : Constant
Bit rate : 1 509 kb/s
Channel(s) : 6 channels
Channel positions : Front: L C R, Side: L R, LFE
Sampling rate : 48.0 kHz
Frame rate : 93.750 FPS (512 SPF)
Bit depth : 24 bits
Compression mode : Lossy
Stream size : 1.23 GiB (6%)
Language : English
Default : No
Forced : No

Text #1
ID : 8
Format : UTF-8
Codec ID : S_TEXT/UTF8
Codec ID/Info : UTF-8 Plain Text
Duration : 1 h 48 min
Bit rate : 69 b/s
Count of elements : 1184
Stream size : 55.3 KiB (0%)
Title : A.Matveev
Language : Russian
Default : Yes
Forced : No

Text #2
ID : 9
Format : UTF-8
Codec ID : S_TEXT/UTF8
Codec ID/Info : UTF-8 Plain Text
Duration : 1 h 53 min
Bit rate : 64 b/s
Count of elements : 925
Stream size : 53.2 KiB (0%)
Title : iTunes
Language : Russian
Default : No
Forced : No

Text #3
ID : 10
Format : UTF-8
Codec ID : S_TEXT/UTF8
Codec ID/Info : UTF-8 Plain Text
Duration : 1 h 46 min
Bit rate : 47 b/s
Count of elements : 1108
Stream size : 36.9 KiB (0%)
Title : Full
Language : English
Default : No
Forced : No

pb.wtf



Скачать Агенты А.Н.К.Л. через торрент https://c.radikal.ru/c03/1807/d4/53166ec4a511.jpg Скачать фильм Агенты А.Н.К.Л. через торрент бесплантно в хорошем качестве Описание: Наполеон Соло — агент ЦРУ, на счету которого огромное количество успешно проведенных операций. Он считается одним из лучших ... 10 10 7
Торрент: Зарегистрирован [2018-07-13 21:35] · скачан: 69 раз
Статус: √ проверено
Размер: 21.28 GB
Как cкачать? Как скачать Агенты А.Н.К.Л. через торрент | qTorrent

% Раздел Тема Автор DL S | L
Фильмы [HD 720p, 1080p] (Хороший звук DUB, MVO) [ 6.96 GB ] Агенты А.Н.К.Л. / The Man from U.N.C.L.E. [2015 BDRip 1080p HEVC ] 2xAVO+DUB [] bober100 Скачать
2 | 0
Фильмы с авторской озвучкой [ 1.45 GB ] Агенты А.Н.К.Л. / The Man from U.N.C.L.E. [2015 BDRip] [AVO] killermax2013 Скачать
1 | 0
Фильмы (WEB-DL 720p, 1080p) [ 4.25 GB ] Агенты А.Н.К.Л. / The Man from U.N.C.L.E. [2015 WEB-DL 1080p / ] Ворон Скачать
1 | 0
Фильмы с авторской озвучкой [ 2.15 GB ] Агенты А.Н.К.Л. / The Man from U.N.C.L.E. [2015 HDRip Авторский одноголосый "Д.Есарев"] coc900 Скачать
1 | 0
Фильмы (DVD фильмы) [ 5.57 GB ] Агенты А.Н.К.Л. / The Man from U.N.C.L.E. [2015 DVD9] R5 voovaz Скачать
1 | 0
Фильмы (DVD фильмы) [ 6.88 GB ] Агенты А.Н.К.Л. / The Man from U.N.C.L.E. [2015 DVD9 / Custom] DUB] Ворон Скачать
1 | 0
R.G. Resident & PiratVoice - Фильмы, Видео [ 2.17 GB ] Агенты А.Н.К.Л. / The Man from U.N.C.L.E. [2015 WEB-DLRip-AVC ] schultz Скачать
1 | 0

28-11-2019 20:33  

Отключить всю рекламу на сайте

    Дорогой пользователь! Огромная просьба, поблагодарите релизера, оцените раздачу и оставьте свои комментарий, если Вы скачали Агенты А.Н.К.Л. через торрент бесплатно! Внесите свою лепту в развитие PiratBit!
    Комментировать посты могут только пользователи прошедшие не сложную регистрацию
    Показать сообщения:    

    Агенты А.Н.К.Л. через торрент
    Скачать бесплатно Агенты А.Н.К.Л.
    Агенты А.Н.К.Л. скачать торрент
    Агенты А.Н.К.Л. смотреть онлайн
    Cкачать фильм Агенты А.Н.К.Л. бесплатно
    Агенты А.Н.К.Л. скачать торрент в хорошем качестве
    Агенты А.Н.К.Л. смотреть онлайн бесплатно в хорошем качестве


    Вы не можете начинать темы
    Вы не можете отвечать на сообщения
    Вы не можете редактировать свои сообщения
    Вы не можете удалять свои сообщения
    Вы не можете голосовать в опросах
    Вы не можете прикреплять файлы к сообщениям
    Вы можете скачивать файлы