Ссылка на приватное зеркало нашего сайта всего за 1$. Внимание количество ограничено!!!

2 сезон

iTunes

1 сезон

1

iTunes

iTunes

iTunes

1 сезон

RePack

30

ИГРА 18+

pack

ВАЖНО

!!Акция!!

Alien_RageХит недели

RePack

MK11
pack

Забери бонус

RePack

jed

!!Акция!!

Alien_Rage

RePack

fifa19

RePack

Assassins Creed: Odyssey

RePack

NEED FOR SPEED™ PAYBACK

4 сезон

9 сезон

Бесстыжие 9 сезон

Все сериалы

все сериалы на PB.wtf

RePack

FAR CRY 5
  

Мой лучший друг (Элина Суни) [2017, драма, история, WEB-DL 720p] pb.wtf

Мой лучший друг через торрент pb.wtf

Размер: 4.96 GB | Добавлен: 2 года 3 мес. назад | Торрент скачан:16 раз
Скачать  

14-07-2018 05:54 Мой лучший друг Скачать торрент  

Мой лучший другГод выпуска: 2017
Страна: Россия
Жанр: драма, история
Продолжительность: :02:26:23
Перевод: Не требуется
Субтитры: отсутствуют

Режиссер: Элина Суни



В ролях:

Маргарита Кутовая, Юрий Поляк, Владимир Ильин, Антон Капанин, Людмила Дмитриева, Кира Тё, Денис Варенов, Дмитрий Файнштейн, Анастасия Пронина

Описание:

Лучший студент курса, талант и красавец Андрей Артамонов совершенно неожиданно проваливает защиту курсовой. В шестидесятые годы научно-технические разработки студентов часто внедрялись в производство, и идея Артамонова вполне могла бы стать прогрессивным открытием в газовой промышленности. Однако гордость и самолюбие не позволяют ему признать очевидные ошибки: он выбрасывает чертежи и забывает об этой работе. Но через четыре года после окончания института судьба заставит его не только вспомнить о выброшенных в мусор чертежах, но и сделать сложнейший выбор - либо блестящая карьера в Москве, либо три пожелтевших листа бумаги.

Качество: WEB-DL 720p
Формат: MKV

Видео: h.264, 4 469 kb/s, 1280x534
Аудио#1: Русский, (AC3, 2 ch, 384 Кбит/с)
скриншот  скриншот  скриншот  

Общее
Уникальный идентификатор : 225800362017040600094718346010633165815 (0xA9DF915FAE0F0C15BB5EB4585353DBF7)
Полное имя : D:\Moy.LuTSHiy.DruG.2o17.O.WEB-DL.72OP_KOSHARA.mkv
Формат : Matroska
Версия формата : Version 2
Размер файла : 4,96 Гбайт
Продолжительность : 2 ч. 26 м.
Режим общего битрейта : Переменный
Общий поток : 4855 Кбит/сек
Дата кодирования : UTC 2018-06-19 12:21:54
Программа кодирования : mkvmerge v8.3.0 ('Over the Horizon') 64bit
Библиотека кодирования : libebml v1.3.1 + libmatroska v1.4.2

Видео
Идентификатор : 1
Формат : AVC
Формат/Информация : Advanced Video Codec
Профиль формата : High@L4.1
Параметр CABAC формата : Да
Параметр RefFrames формата : 4 кадра
Идентификатор кодека : V_MPEG4/ISO/AVC
Продолжительность : 2 ч. 26 м.
Вид битрейта : Переменный
Битрейт : 4469 Кбит/сек
Максимальный битрейт : 5000 Кбит/сек
Ширина : 1280 пикселей
Высота : 534 пикселя
Соотношение сторон : 2,40:1
Режим частоты кадров : Постоянный
Частота кадров : 23,976 (24000/1001) кадра/сек
Стандарт вещания : Component
Цветовое пространство : YUV
Субдискретизация насыщенности : 4:2:0
Битовая глубина : 8 бит
Тип развёртки : Прогрессивная
Бит/(Пиксели*Кадры) : 0.267
Размер потока : 4,47 Гбайт (90%)
Default : Да
Forced : Нет
Цветовой диапазон : Limited
Основные цвета : BT.709
Характеристики трансфера : BT.709
Коэффициенты матрицы : BT.709

Аудио
Идентификатор : 2
Формат : AC-3
Формат/Информация : Audio Coding 3
Расширение режима : CM (complete main)
Параметр Endianness формата : Big
Идентификатор кодека : A_AC3
Продолжительность : 2 ч. 26 м.
Вид битрейта : Постоянный
Битрейт : 384 Кбит/сек
Каналы : 2 канала
Расположение каналов : Front: L R
Частота : 48,0 КГц
Частота кадров : 31,250 кадров/сек (1536 spf)
Метод сжатия : С потерями
Размер потока : 402 Мбайт (8%)
Default : Да
Forced : Нет

pb.wtf



Скачать Мой лучший друг через торрент https://img11.lostpic.net/2018/07/14/8ed8b3f0801fbb450995cf5a0659c1d6.jpg Скачать фильм Мой лучший друг через торрент бесплантно в хорошем качестве Описание: Лучший студент курса, талант и красавец Андрей Артамонов совершенно неожиданно проваливает защиту курсовой. В шестидесятые годы ... 10 10 3
Торрент: Зарегистрирован [2018-07-14 05:54] · скачан: 16 раз
Статус: T временная
Размер: 4.96 GB
Как cкачать? Как скачать Мой лучший друг через торрент | qTorrent

% Раздел Тема Автор DL S | L
Порно фильмы без сюжета [ 1.29 GB ] Запретные Романы 12: Папа Моего Лучшего Друга / Forbidden Affairs Vol. 12: My Best Friends Dad [2020 18+ Teens All Sex Couples Family Roleplay WEB-DL] bashai5 Скачать
1 | 0
Порно фильмы HD [ 2.73 GB ] Peguei Meu Marido Com A Minha Melhor Amiga / Получил мой муж с моим лучшим другом [2019 Anal BlowJob Big Ass Brazilian Cowgirl Cumshot Doggystyle Facial Gonzo Hardcore Latina Lesbian Missionary Oral Portuguese Reverse Cowgirl WEB- Venom Скачать
1 | 0
T Наши фильмы (мультфильмы) cо спонсором показа (Новинки AVI/MKV) [ 1.46 GB ] Мой лучший друг [2017 история WEB-DLRip] bober100 Скачать
1 | 0
T Наши фильмы (мультфильмы) cо спонсором показа (Новинки AVI/MKV) [ 5.51 GB ] Мой лучший друг [2017 история WEB-DL 1080p] bober100 Скачать
1 | 1
T Наши фильмы (мультфильмы) cо спонсором показа (Новинки AVI/MKV) [ 2.18 GB ] Мой лучший друг [2017 история WEB-DLRip] bober100 Скачать
1 | 0
Порно фильмы с сюжетом [ 1.24 GB ] Запретные Романы 8: Муж Моей Лучшей Подруги / Forbidden Affairs 8: My Best Friend's Husband [2018 Feature Wives WEB-DL 480p] Split Scenes sheker187 Скачать
1 | 0
Фильмы [HD 720p, 1080p] (Хороший звук DUB, MVO) [ 17.18 GB ] Девушка моего лучшего друга / My Best Friend's Girl [2008 BDRip 1080p by msltel] DUB VO msltel Скачать
1 | 0

28-11-2019 20:33  

Отключить всю рекламу на сайте

    Дорогой пользователь! Огромная просьба, поблагодарите релизера, оцените раздачу и оставьте свои комментарий, если Вы скачали Мой лучший друг через торрент бесплатно! Внесите свою лепту в развитие PiratBit!
    Комментировать посты могут только пользователи прошедшие не сложную регистрацию
    Показать сообщения:    

    Мой лучший друг через торрент
    Скачать бесплатно Мой лучший друг
    Мой лучший друг скачать торрент
    Мой лучший друг смотреть онлайн
    Cкачать фильм Мой лучший друг бесплатно
    Мой лучший друг скачать торрент в хорошем качестве
    Мой лучший друг смотреть онлайн бесплатно в хорошем качестве


    Вы не можете начинать темы
    Вы не можете отвечать на сообщения
    Вы не можете редактировать свои сообщения
    Вы не можете удалять свои сообщения
    Вы не можете голосовать в опросах
    Вы не можете прикреплять файлы к сообщениям
    Вы можете скачивать файлы