новый адрес
Ссылка на приватное зеркало всего за 1$. Внимание количество ограничено!!!

iTunes

1+1

iTunes

мы

iTunes

1

iTunes

Чернобыль

iTunes

Ральф против интернета

Лицензия

ПШазам

Лицензия

Оно 2

Лицензия

30
pack

Вам бонус

ВАЖНО

!!Акция!!

Alien_RageХит недели

RePack

Resident Evil 21

ИГРА 18+

pack

RePack

jed

!!Акция!!

Alien_Rage

RePack

fifa19

RePack

Assassins Creed: Odyssey

RePack

NEED FOR SPEED™ PAYBACK

3 сезон

9 сезон

Бесстыжие 9 сезон

Все сериалы

все сериалы на PB.wtf

RePack

FAR CRY 5
Ребята, катастрофически не хватает 1900р. для оплаты серверов за Октябрь (всвязи с блокировками трафик упал в 3 раза), 1-2р., выручайте.
  

Я худею (Алексей Нужный) [2018, комедия, BDRip] [Лицензия] pb.wtf

Я худею через торрент pb.wtf

Раздают: 2 [ 0.3 KB/s ]
Размер: 1.46 GB | Добавлен: 1 год 4 мес. назад | Торрент скачан:295 раз
Скачать  

14-07-2018 09:49 Я худею Скачать торрент  

Я худею
Год выпуска: 2018
Страна: Россия
Жанр: комедия
Продолжительность: 01:42:40
Перевод: Не требуется | Лицензия
Субтитры: отсутствуют

Режиссер: Алексей Нужный

rating

В ролях:

Александра Бортич, Ирина Горбачева, Сергей Шнуров, Евгений Кулик, Роман Курцын, Александр Пташенчук, Елена Валюшкина, Валерия Дергилева, Андрей Трушин

Описание:

В жизни Ани есть две главные любви - её парень Женя и еда. Из-за еды они и расстаются: Жене совсем не нравится, как Аня стала выглядеть. Аня не готова просто сдаться. При поддержке лучшей подруги и увлечённого здоровым образом жизни добряка Коли она пускается в увлекательное приключение, чтобы похудеть и обрести любовь и счастье.

Качество: BDRip
Формат: AVI

Видео: Xvid, 720x320, ~1581 kbps, 24,000 fps
Аудио: русский, AC3 5.1, 48 kHz, 448 kbps | Лицензия
скриншот  скриншот  скриншот  скриншот  

General
Полное имя : F:TorrentJaHudeyuBDRipAVI.avi
Формат : AVI
Формат/Информация : Audio Video Interleave
Размер файла : 1.46 GiB
Продолжительность : 1 h 42 min
Общий поток : 2 038 kb/s
Библиотека кодирования : VirtualDub build 35491/release

Video
Идентификатор : 0
Формат : MPEG-4 Visual
Профиль формата : Advanced Simple@L5
Настройки формата : BVOP2 / Custom Matrix
Параметр BVOP формата : 2
Параметр QPel формата : No
Параметр GMC формата : No warppoints
Параметр матрицы формата : Custom
Идентификатор кодека : XVID
Идентификатор кодека/Подсказка : XviD
Продолжительность : 1 h 42 min
Битрейт : 1 581 kb/s
Ширина : 720 pixels
Высота : 320 pixels
Соотношение сторон : 2.25:1
Частота кадров : 24.000 FPS
Цветовое пространство : YUV
Субдискретизация насыщенности : 4:2:0
Битовая глубина : 8 bits
Тип развёртки : Progressive
Метод сжатия : Lossy
Бит/(Пиксели*Кадры) : 0.286
Размер потока : 1.13 GiB (78%)
Библиотека кодирования : XviD 67

Audio
Идентификатор : 1
Формат : AC-3
Формат/Информация : Audio Coding 3
Идентификатор кодека : 2000
Продолжительность : 1 h 42 min
Вид битрейта : Constant
Битрейт : 448 kb/s
Каналы : 6 channels
Расположение каналов : Front: L C R, Side: L R, LFE
Частота : 48.0 kHz
Частота кадров : 31.250 FPS (1536 SPF)
Битовая глубина : 16 bits
Метод сжатия : Lossy
Размер потока : 329 MiB (22%)
Выравнивание : Aligned on interleaves
Продолжительность промежутка : 42 ms (1.00 video frame)
Время предзагрузки промежутка : 512 ms

pb.wtf



Скачать Я худею через торрент http://i104.fastpic.ru/big/2018/0714/82/35ca855376a7cccf9171e0a4043cf882.jpeg Скачать фильм Я худею через торрент бесплантно в хорошем качестве Описание: В жизни Ани есть две главные любви - её парень Женя и еда. Из-за еды они и расстаются: Жене совсем не нравится, как Аня стала ... 9.6 10 5
Торрент: Зарегистрирован [2018-07-14 09:49] · скачан: 295 раз
Статус: √ проверено
Размер: 1.46 GB
Как cкачать? Как скачать Я худею через торрент | qTorrent

% Раздел Тема Автор DL S | L
Клипы [ 143 MB ] Cosmos Girls - Я худею [клип] [2019 Поп WEBRip 1080p] bober100 Скачать
1 | 0
Наши фильмы (HD, WEB-DL 720p, 1080p) [ 8.71 GB ] Я худею [2018 BDRip 1080p] [] bober100 Скачать
4 | 0
Наши новые фильмы 2018-2019 [ 1.46 GB ] Я худею [2018 BDRip] [Русский] [] Twi7ter Скачать
8 | 0
Наши фильмы (Blu-ray, BD-Remux, HDDVD) [ 22.11 GB ] Я худею [2018 BD Remux 1080p] [] bober100 Скачать
1 | 0
Наши фильмы (Blu-ray, BD-Remux, HDDVD) [ 23.26 GB ] Я худею [2018 Blu-ray RUS 1080p] [] bober100 Скачать
1 | 0
Наши новые фильмы 2018-2019 [ 1.7 GB ] Я худею [2018 HDRip-AVC] [] - ExKinoRay Enigma2010 Скачать
2 | 0
Наши новые фильмы 2018-2019 [ 745 MB ] Я худею [2018 HDRip] [] bober100 Скачать
1 | 0
    Дорогой пользователь! Огромная просьба, поблагодарите релизера, оцените раздачу и оставьте свои комментарий, если Вы скачали Я худею через торрент бесплатно! Внесите свою лепту в развитие PiratBit!
    Комментировать посты могут только пользователи прошедшие не сложную регистрацию
    Показать сообщения:    

    Я худею через торрент
    Скачать бесплатно Я худею
    Я худею скачать торрент
    Я худею смотреть онлайн
    Cкачать фильм Я худею бесплатно
    Я худею скачать торрент в хорошем качестве
    Я худею смотреть онлайн бесплатно в хорошем качестве


    Вы не можете начинать темы
    Вы не можете отвечать на сообщения
    Вы не можете редактировать свои сообщения
    Вы не можете удалять свои сообщения
    Вы не можете голосовать в опросах
    Вы не можете прикреплять файлы к сообщениям
    Вы можете скачивать файлы