Ссылка на приватное зеркало всего за 1$. Внимание количество ограничено!!!

OK

1+1

iTunes

мы

OK

1

WEB-DLRip

Джокер

Пифагор

Ведьмак / The Witcher сериал

Лицензия

ПШазам

ОК

Оно 2

iTunes

30
pack

Вам бонус

ВАЖНО

!!Акция!!

Alien_RageХит недели

RePack

Resident Evil 21

ИГРА 18+

pack

RePack

jed

!!Акция!!

Alien_Rage

RePack

fifa19

RePack

Assassins Creed: Odyssey

RePack

NEED FOR SPEED™ PAYBACK

4 сезон

9 сезон

Бесстыжие 9 сезон

Все сериалы

все сериалы на PB.wtf

RePack

FAR CRY 5
  

С любовью, Саймон / Love, Simon (Грег Берланти) [2018, драма, мелодрама, комедия, BDRip 1080p] 2xMVO (rus, ukr) [HDRezka Studio, iTunes] pb.wtf

С любовью, Саймон через торрент pb.wtf

Раздают: 1 [ 0 KB/s ]
Размер: 11.73 GB | Добавлен: 1 год 6 мес. назад | Торрент скачан:135 раз
Скачать  

14-07-2018 13:34 С любовью, Саймон Скачать торрент  

С любовью, Саймон / Love, Simon
Год выпуска: 2018
Страна: США
Жанр: драма, мелодрама, комедия
Продолжительность: 01:49:43
Перевод:

#1: Профессиональный многоголосый | iTunes
#2: Профессиональный многоголосый | HDRezka Studio

Субтитры: Русские (полные), украинские, румынские, английские (полные, SDH)

Режиссер: Грег Берланти

rating

В ролях:

Ник Дж. Робинсон, Дженнифер Гарнер, Джош Дюамель, Кэтрин Лэнгфорд, Александра Шипп, Логан Миллер, Кейнан Лонсдейл, Хорхе Лендеборг мл., Талита Бейтман, Тони Хейл

Описание:

Старшеклассник Саймон скрывает от друзей свою гомосексуальность, но его переписка с анонимным возлюбленным попадает в чужие руки. Школьный «клоун» Мартин угрожает разоблачить Саймона, если тот не поможет ему завязать роман с местной красавицей.

Качество: BDRip 1080p
Формат: MKV

Видео: MPEG-4 AVC, 1920x804, 13.9 Mbit/s, 23.976 fps
Аудио#1: 48 kHz, AC3, 5.1, 384 Kbps | iTunes | RUS |
Аудио#2: 48 kHz, AC3, 2.0, 192 Kbps | HDRezka Studio | RUS |
Аудио#3: 48 kHz, AC3, 2.0, 192 Kbps | Дублированный | UKR |
Аудио#4: 48 kHz, AC3, 5.1, 640 Kbps | Оригинал | ENG |
скриншот   скриншот   скриншот   скриншот   скриншот  

General
Unique ID : 230541302496303121469875617155397095739 (0xAD70A3C93FC0DD3E9764A4EE5582913B)
Complete name : F:\Love.Simon.2018.1080p.BluRay.Rus.Ukr.Eng-DONNA.mkv
Format : Matroska
Format version : Version 4 / Version 2
File size : 11.7 GiB
Duration : 1 h 49 min
Overall bit rate : 15.3 Mb/s
Movie name : Love, Simon (2018)
Encoded date : UTC 2018-07-12 16:45:33
Writing application : mkvmerge v7.1.0 ('Good Love') 32bit built on Jul 27 2014 12:59:18
Writing library : libebml v1.3.0 + libmatroska v1.4.1

Video
ID : 1
Format : AVC
Format/Info : Advanced Video Codec
Format profile : High@L4.1
Format settings : CABAC / 5 Ref Frames
Format settings, CABAC : Yes
Format settings, RefFrames : 5 frames
Codec ID : V_MPEG4/ISO/AVC
Duration : 1 h 49 min
Bit rate : 13.9 Mb/s
Width : 1 920 pixels
Height : 804 pixels
Display aspect ratio : 2.40:1
Frame rate mode : Constant
Frame rate : 23.976 (24000/1001) FPS
Color space : YUV
Chroma subsampling : 4:2:0
Bit depth : 8 bits
Scan type : Progressive
Bits/(Pixel*Frame) : 0.375
Stream size : 10.6 GiB (91%)
Writing library : x264 core 142 r2431+42 c69a006 tMod [8-bit@all X86_64]
Encoding settings : cabac=1 / ref=5 / deblock=1:-3:-3 / analyse=0x3:0x133 / me=umh / subme=11 / psy=1 / fade_compensate=0.00 / psy_rd=1.05:0.05 / mixed_ref=1 / me_range=64 / chroma_me=1 / trellis=2 / 8x8dct=1 / cqm=0 / deadzone=21,11 / fast_pskip=0 / chroma_qp_offset=-1 / threads=12 / lookahead_threads=3 / sliced_threads=0 / nr=0 / decimate=0 / interlaced=0 / bluray_compat=0 / constrained_intra=0 / fgo=0 / bframes=10 / b_pyramid=2 / b_adapt=2 / b_bias=0 / direct=3 / weightb=1 / open_gop=0 / weightp=2 / keyint=250 / keyint_min=23 / scenecut=40 / intra_refresh=0 / rc_lookahead=100 / rc=crf / mbtree=0 / crf=15.5000 / qcomp=0.70 / qpmin=0:0:0 / qpmax=69:69:69 / qpstep=4 / vbv_maxrate=50000 / vbv_bufsize=50000 / crf_max=0.0 / nal_hrd=none / filler=0 / ip_ratio=1.40 / pb_ratio=1.30 / aq=1:0.75 / aq-sensitivity=10.00 / aq-factor=1.00:1.00:1.00 / aq2=0 / aq3=0
Language : English
Default : Yes
Forced : No
Color range : Limited
Matrix coefficients : BT.709

Audio #1
ID : 2
Format : AC-3
Format/Info : Audio Coding 3
Codec ID : A_AC3
Duration : 1 h 49 min
Bit rate mode : Constant
Bit rate : 384 kb/s
Channel(s) : 6 channels
Channel positions : Front: L C R, Side: L R, LFE
Sampling rate : 48.0 kHz
Frame rate : 31.250 FPS (1536 SPF)
Bit depth : 16 bits
Compression mode : Lossy
Stream size : 301 MiB (3%)
Title : iTunes
Language : Russian
Service kind : Complete Main
Default : Yes
Forced : No

Audio #2
ID : 3
Format : AC-3
Format/Info : Audio Coding 3
Codec ID : A_AC3
Duration : 1 h 49 min
Bit rate mode : Constant
Bit rate : 192 kb/s
Channel(s) : 2 channels
Channel positions : Front: L R
Sampling rate : 48.0 kHz
Frame rate : 31.250 FPS (1536 SPF)
Bit depth : 16 bits
Compression mode : Lossy
Stream size : 151 MiB (1%)
Title : [HDRezka Studio]
Language : Russian
Service kind : Complete Main
Default : No
Forced : No

Audio #3
ID : 4
Format : AC-3
Format/Info : Audio Coding 3
Codec ID : A_AC3
Duration : 1 h 49 min
Bit rate mode : Constant
Bit rate : 192 kb/s
Channel(s) : 2 channels
Channel positions : Front: L R
Sampling rate : 48.0 kHz
Frame rate : 31.250 FPS (1536 SPF)
Bit depth : 16 bits
Compression mode : Lossy
Stream size : 151 MiB (1%)
Title : iTunes
Language : Ukrainian
Service kind : Complete Main
Default : No
Forced : No

Audio #4
ID : 5
Format : AC-3
Format/Info : Audio Coding 3
Codec ID : A_AC3
Duration : 1 h 49 min
Bit rate mode : Constant
Bit rate : 640 kb/s
Channel(s) : 6 channels
Channel positions : Front: L C R, Side: L R, LFE
Sampling rate : 48.0 kHz
Frame rate : 31.250 FPS (1536 SPF)
Bit depth : 16 bits
Compression mode : Lossy
Stream size : 502 MiB (4%)
Language : English
Service kind : Complete Main
Default : No
Forced : No

Text #1
ID : 6
Format : UTF-8
Codec ID : S_TEXT/UTF8
Codec ID/Info : UTF-8 Plain Text
Duration : 1 h 48 min
Bit rate : 113 b/s
Count of elements : 1818
Stream size : 90.6 KiB (0%)
Title : iTunes
Language : Russian
Default : Yes
Forced : No

Text #2
ID : 7
Format : UTF-8
Codec ID : S_TEXT/UTF8
Codec ID/Info : UTF-8 Plain Text
Duration : 1 h 48 min
Bit rate : 106 b/s
Count of elements : 1827
Stream size : 85.2 KiB (0%)
Title : Full
Language : Ukrainian
Default : No
Forced : No

Text #3
ID : 8
Format : UTF-8
Codec ID : S_TEXT/UTF8
Codec ID/Info : UTF-8 Plain Text
Duration : 1 h 48 min
Bit rate : 63 b/s
Count of elements : 1806
Stream size : 50.7 KiB (0%)
Title : iTunes
Language : Romanian
Default : No
Forced : No

Text #4
ID : 9
Format : UTF-8
Codec ID : S_TEXT/UTF8
Codec ID/Info : UTF-8 Plain Text
Duration : 1 h 44 min
Bit rate : 80 b/s
Count of elements : 2019
Stream size : 61.5 KiB (0%)
Title : Full
Language : English
Default : No
Forced : No

Text #5
ID : 10
Format : UTF-8
Codec ID : S_TEXT/UTF8
Codec ID/Info : UTF-8 Plain Text
Duration : 1 h 47 min
Bit rate : 91 b/s
Count of elements : 2266
Stream size : 71.5 KiB (0%)
Title : SDH
Language : English
Default : No
Forced : No

Menu
00:00:00.000 : en:Chapter 01
00:04:13.795 : en:Chapter 02
00:08:38.893 : en:Chapter 03
00:13:51.121 : en:Chapter 04
00:18:04.041 : en:Chapter 05
00:25:37.994 : en:Chapter 06
00:29:25.138 : en:Chapter 07
00:33:52.321 : en:Chapter 08
00:42:03.229 : en:Chapter 09
00:47:46.613 : en:Chapter 10
00:54:15.043 : en:Chapter 11
00:59:24.435 : en:Chapter 12
01:02:49.390 : en:Chapter 13
01:05:40.770 : en:Chapter 14
01:09:55.399 : en:Chapter 15
01:17:11.501 : en:Chapter 16
01:20:03.298 : en:Chapter 17
01:22:22.687 : en:Chapter 18
01:24:27.562 : en:Chapter 19
01:27:52.850 : en:Chapter 20
01:32:35.633 : en:Chapter 21
01:38:17.433 : en:Chapter 22
01:41:13.192 : en:Chapter 23
01:45:44.963 : en:Chapter 24

pb.wtf



Скачать С любовью, Саймон через торрент http://lostpix.com/img/2018-06/11/6qvgmajfjhmqz47b54gy0t8ks.jpg Скачать фильм С любовью, Саймон через торрент бесплантно в хорошем качестве Описание: Старшеклассник Саймон скрывает от друзей свою гомосексуальность, но его переписка с анонимным возлюбленным попадает в чужие руки. ... 8.7 10 7
Торрент: Зарегистрирован [2018-07-14 13:34] · скачан: 135 раз
Статус: √ проверено
Размер: 11.73 GB
Как cкачать? Как скачать С любовью, Саймон через торрент | qTorrent

% Раздел Тема Автор DL S | L
Фильмы 2018 [DVDrip, WEB-DLRip, HDrip] (DUB, MVO) [ 1.41 GB ] С любовью Саймон / Love Simon [2018 BDRip] MVO bober100 Скачать
2 | 0
Фильмы [HD 720p, 1080p] (Хороший звук DUB, MVO) [ 5.46 GB ] С любовью Саймон / Love Simon [2018 BDRip 720p] 2xMVO [HDRezka Studio ] bober100 Скачать
1 | 0
Фильмы 2018 [DVDrip, WEB-DLRip, HDrip] (DUB, MVO) [ 711 MB ] С любовью Саймон / Love Simon [2018 HDRip многоголосый закадровый ""] coc900 Скачать
1 | 0
Фильмы (Blu-ray, BD-Remux, HDDVD) [ 27.25 GB ] С любовью Саймон / Love Simon [2018 BD Remux 1080p] 2xMVO [HDRezka Studio ] bober100 Скачать
1 | 0
Фильмы 2018 [DVDrip, WEB-DLRip, HDrip] (DUB, MVO) [ 2.06 GB ] С любовью Саймон / Love Simon [2018 BDRip-AVC] 2xMVO [HDRezka Studio ] bober100 Скачать
2 | 0
Ultra HD (UHD: 2K, 4K, 8K) — видео сверхвысокой чёткости [ 53.2 GB ] С любовью Саймон / Love Simon [2018 UHD BDRemux 2160p] 2xMVO [HDRezka Studio ] bober100 Скачать
1 | 0

28-11-2019 20:33  

Отключить всю рекламу на сайте

    Дорогой пользователь! Огромная просьба, поблагодарите релизера, оцените раздачу и оставьте свои комментарий, если Вы скачали С любовью, Саймон через торрент бесплатно! Внесите свою лепту в развитие PiratBit!
    Комментировать посты могут только пользователи прошедшие не сложную регистрацию
    Показать сообщения:    

    С любовью, Саймон через торрент
    Скачать бесплатно С любовью, Саймон
    С любовью, Саймон скачать торрент
    С любовью, Саймон смотреть онлайн
    Cкачать фильм С любовью, Саймон бесплатно
    С любовью, Саймон скачать торрент в хорошем качестве
    С любовью, Саймон смотреть онлайн бесплатно в хорошем качестве


    Вы не можете начинать темы
    Вы не можете отвечать на сообщения
    Вы не можете редактировать свои сообщения
    Вы не можете удалять свои сообщения
    Вы не можете голосовать в опросах
    Вы не можете прикреплять файлы к сообщениям
    Вы можете скачивать файлы