Ссылка на приватное зеркало нашего сайта всего за 1$. Внимание количество ограничено!!!

2 сезон

iTunes

1 сезон

1

2 сезон

2 сезон

iTunes

1 сезон

RePack

30

Новинка

ВАЖНО

ИГРА 18+

pack

RePack

MK11
pack

Забери бонус

RePack

jed

!!Акция!!

Alien_Rage

RePack

fifa19

RePack

Assassins Creed: Odyssey

RePack

NEED FOR SPEED™ PAYBACK

4 сезон

9 сезон

Бесстыжие 9 сезон

Все сериалы

все сериалы на PB.wtf

RePack

FAR CRY 5
  

Сыны Анархии / Sons of Anarchy / Сезон: 1 / Серии: 1-13 из 13 (Пэрис Барклай) [2008, Драма, криминал, BD Remux 1080p] MVO [LostFilm] pb.wtf

Сыны Анархии через торрент pb.wtf

Размер: 102.27 GB | Добавлен: 2 года 4 мес. назад | Торрент скачан:28 раз
Скачать  

14-07-2018 19:08 Сыны Анархии Скачать торрент  

Сыны Анархии / Sons of Anarchy
Год выпуска: 2008
Страна: США
Жанр: Драма, криминал
Продолжительность: 00:44:00
Перевод: Профессиональный (многоголосый закадровый) | LostFilm
Субтитры: Английские

Режиссёр: Пэрис Барклай

rating

В ролях:

Чарли Ханнэм, Кэти Сагал, Марк Бун Джуниор, Ким Коутс, Томми Флэнаган, Мэгги Сифф, Рон Перлман, Тео Росси, Уильям Лаккинг, Райан Херст

Описание:

«Сыны Анархии» — сериал рассказывает о клубе байкеров, которые пытаются защитить свой городок от наркотиков и влияния из вне, хотя сами грешат торговлей оружием. Секс, наркотики и рок-н-ролл, любовь, насилие и смысл жизни – вокруг этих проблем бытия закручен сюжет.

Сэмпл: http://sendfile.su/1150326

Качество: BD Remux 1080p
Контейнер: MKV

Видео: h264, 1920x1080 (16:9), 23.976 fps, ~25000 kbps
Аудио 1: Русский DTS, 48.0 KHz, 6 channels, ~1500 kbps
Аудио 2: Английский DTS, 48.0 KHz, 6 channels, ~1500 kbps
1 «Пилотная серия»
2 «Семя»
3 «Луна-парк»
4 «Перебой»
5 «Возвращение»
6 «AK-51
7 «Старые кости»
8 «Тяга»
9 «И ад следовал за ним»
10 «Лучшая половина»
11 «Стукачок»
12 «Сон младенцев»
13 «Провидец»
Complete name : G:\Sons of Anarchy\Season 1\Sons.of.Anarchy.S01E01.mkv
Format : Matroska
Format version : Version 4 / Version 2
File size : 9.41 GiB
Duration : 57mn 11s
Overall bit rate mode : Variable
Overall bit rate : 23.6 Mbps
Encoded date : UTC 2015-08-30 13:52:03
Writing application : mkvmerge v8.3.0 ('Over the Horizon') 64bit
Writing library : libebml v1.3.1 + libmatroska v1.4.2
Attachements : Cover.jpg
DURATION : 00:57:11.435000000
NUMBER_OF_FRAMES : 321697
NUMBER_OF_BYTES : 647254364
_STATISTICS_WRITING_APP : mkvmerge v8.3.0 ('Over the Horizon') 64bit
_STATISTICS_WRITING_DATE_UT : 2015-08-30 13:52:03
_STATISTICS_TAGS : BPS DURATION NUMBER_OF_FRAMES NUMBER_OF_BYTES

Video
ID : 1
Format : AVC
Format/Info : Advanced Video Codec
Format profile : High@L4.1
Format settings, CABAC : Yes
Format settings, ReFrames : 4 frames
Codec ID : V_MPEG4/ISO/AVC
Duration : 57mn 11s
Bit rate mode : Variable
Bit rate : 20.1 Mbps
Maximum bit rate : 40.0 Mbps
Width : 1 920 pixels
Height : 1 080 pixels
Display aspect ratio : 16:9
Frame rate mode : Constant
Frame rate : 23.976 fps
Color space : YUV
Chroma subsampling : 4:2:0
Bit depth : 8 bits
Scan type : Progressive
Bits/(Pixel*Frame) : 0.404
Stream size : 8.01 GiB (85%)
Title : Season 1, Episode 1: "Pilot"
Default : Yes
Forced : No
Color primaries : BT.709
Transfer characteristics : BT.709
Matrix coefficients : BT.709
Color range : Limited
DURATION : 00:57:11.428000000
NUMBER_OF_FRAMES : 82272
NUMBER_OF_BYTES : 8799281746
_STATISTICS_WRITING_APP : mkvmerge v8.3.0 ('Over the Horizon') 64bit
_STATISTICS_WRITING_DATE_UT : 2015-08-30 13:52:03
_STATISTICS_TAGS : BPS DURATION NUMBER_OF_FRAMES NUMBER_OF_BYTES

Audio #1
ID : 2
Format : DTS
Format/Info : Digital Theater Systems
Mode : 16
Format settings, Endianness : Big
Codec ID : A_DTS
Duration : 57mn 11s
Bit rate mode : Constant
Bit rate : 1 510 Kbps
Channel(s) : 6 channels
Channel positions : Front: L C R, Side: L R, LFE
Sampling rate : 48.0 KHz
Bit depth : 24 bits
Compression mode : Lossy
Stream size : 618 MiB (6%)
Title : LostFilmTV
Language : Russian
Default : Yes
Forced : No

Audio #2
ID : 3
Format : DTS
Format/Info : Digital Theater Systems
Mode : 16
Format settings, Endianness : Big
Codec ID : A_DTS
Duration : 57mn 11s
Bit rate mode : Constant
Bit rate : 1 509 Kbps
Channel(s) : 6 channels
Channel positions : Front: L C R, Side: L R, LFE
Sampling rate : 48.0 KHz
Bit depth : 24 bits
Compression mode : Lossy
Stream size : 617 MiB (6%)
Title : English
Language : English
Default : No
Forced : No

Text #1
ID : 4
Format : PGS
Muxing mode : zlib
Codec ID : S_HDMV/PGS
Codec ID/Info : The same subtitle format used on BDs/HD-DVDs
Title : English
Language : English
Default : No
Forced : No

Text #2
ID : 5
Format : UTF-8
Codec ID : S_TEXT/UTF8
Codec ID/Info : UTF-8 Plain Text
Title : English
Language : English
Default : No
Forced : No

Menu
00:00:00.000 : en:00:00:00.000
00:06:21.298 : en:00:06:21.298
00:10:26.125 : en:00:10:26.125
00:15:22.588 : en:00:15:22.588
00:18:58.637 : en:00:18:58.637
00:23:41.629 : en:00:23:41.629
00:27:28.230 : en:00:27:28.230
00:34:25.063 : en:00:34:25.063
00:37:46.431 : en:00:37:46.431
00:40:46.444 : en:00:40:46.444
00:45:04.076 : en:00:45:04.076
00:50:27.024 : en:00:50:27.024
скриншот   скриншот   скриншот   скриншот   скриншот  
pb.wtf



Скачать Сыны Анархии через торрент http://i42.fastpic.ru/big/2012/0916/c1/62cf25be97baf6774156d6dd38d288c1.jpeg Скачать фильм Сыны Анархии через торрент бесплантно в хорошем качестве Описание: «Сыны Анархии» — сериал рассказывает о клубе байкеров, которые пытаются защитить свой городок от наркотиков и влияния из вне, ... 10 10 5
Info! Золотая раздача, скачанное не засчитывается.
Торрент: Зарегистрирован [2018-07-14 19:08] · скачан: 28 раз
Статус: √ проверено
Размер: 102.27 GB
Как cкачать? Как скачать Сыны Анархии через торрент | qTorrent

% Раздел Тема Автор DL S | L
Зарубежные сериалы [ 92 GB ] Сыны Анархии / Sons of Anarchy / Сезон: 3 / Серии: 1-13 из 13 [2010 BD Remux 1080p] MVO [LostFilm] bober100 Скачать
1 | 0
Зарубежные сериалы [ 98.78 GB ] Сыны Анархии / Sons of Anarchy / Сезон: 2 / Серии: 1-13 из 13 [2009 BD Remux 1080p] MVO [LostFilm] bober100 Скачать
1 | 0

28-11-2019 20:33  

Отключить всю рекламу на сайте

    Дорогой пользователь! Огромная просьба, поблагодарите релизера, оцените раздачу и оставьте свои комментарий, если Вы скачали Сыны Анархии через торрент бесплатно! Внесите свою лепту в развитие PiratBit!
    Комментировать посты могут только пользователи прошедшие не сложную регистрацию
    Показать сообщения:    

    Сыны Анархии через торрент
    Скачать бесплатно Сыны Анархии
    Сыны Анархии скачать торрент
    Сыны Анархии смотреть онлайн
    Cкачать фильм Сыны Анархии бесплатно
    Сыны Анархии скачать торрент в хорошем качестве
    Сыны Анархии смотреть онлайн бесплатно в хорошем качестве


    Вы не можете начинать темы
    Вы не можете отвечать на сообщения
    Вы не можете редактировать свои сообщения
    Вы не можете удалять свои сообщения
    Вы не можете голосовать в опросах
    Вы не можете прикреплять файлы к сообщениям
    Вы можете скачивать файлы