Ссылка на приватное зеркало нашего сайта всего за 1$. Внимание количество ограничено!!!

2 сезон

iTunes

1 сезон

1

2 сезон

2 сезон

iTunes

1 сезон

RePack

30

Ultimate

ВАЖНО

ИГРА 18+

pack

RePack

MK11
pack

Забери бонус

RePack

jed

!!Акция!!

Alien_Rage

RePack

fifa19

RePack

Assassins Creed: Odyssey

RePack

NEED FOR SPEED™ PAYBACK

4 сезон

9 сезон

Бесстыжие 9 сезон

Все сериалы

все сериалы на PB.wtf

RePack

FAR CRY 5
  

Сыны Анархии / Sons of Anarchy / Сезон: 2 / Серии: 1-13 из 13 (Пэрис Барклай) [2009, Драма, криминал, BD Remux 1080p] MVO [LostFilm] pb.wtf

Сыны Анархии через торрент pb.wtf

Размер: 98.78 GB | Добавлен: 2 года 4 мес. назад | Торрент скачан:11 раз
Скачать  

14-07-2018 19:23 Сыны Анархии Скачать торрент  

Сыны Анархии / Sons of Anarchy
Год выпуска: 2009
Страна: США
Жанр: Драма, криминал
Продолжительность: 00:44:00
Перевод: Профессиональный (многоголосый закадровый) | LostFilm
Субтитры: Английские

Режиссёр: Пэрис Барклай

В ролях:

Чарли Ханнэм, Кэти Сагал, Марк Бун Джуниор, Ким Коутс, Томми Флэнаган, Мэгги Сифф, Рон Перлман, Тео Росси, Уильям Лаккинг, Райан Херст

Описание:

«Сыны Анархии» — сериал рассказывает о клубе байкеров, которые пытаются защитить свой городок от наркотиков и влияния из вне, хотя сами грешат торговлей оружием. Секс, наркотики и рок-н-ролл, любовь, насилие и смысл жизни – вокруг этих проблем бытия закручен сюжет.

rating

Сэмпл: http://sendfile.su/1150326

Качество: BD Remux 1080p
Контейнер: MKV

Видео: h264, 1920x1080 (16:9), 23.976 fps, ~25000 kbps
Аудио 1: Русский AC3, 48.0 KHz, 2 channels, 384 kbps
Аудио 2: Английский DTS, 48.0 KHz, 6 channels, 1500 kbps
Complete name : H:\Sons of Anarchy\Season 2\Sons.of.Anarchy.S02E01.mkv
Format : Matroska
Format version : Version 4 / Version 2
File size : 7.01 GiB
Duration : 46mn 33s
Overall bit rate mode : Variable
Overall bit rate : 21.5 Mbps
Encoded date : UTC 2015-09-05 12:00:56
Writing application : mkvmerge v8.3.0 ('Over the Horizon') 64bit
Writing library : libebml v1.3.1 + libmatroska v1.4.2
Attachements : Cover.jpg
DURATION : 00:46:29.203000000
NUMBER_OF_FRAMES : 1388
NUMBER_OF_BYTES : 10844143
_STATISTICS_WRITING_APP : mkvmerge v8.3.0 ('Over the Horizon') 64bit
_STATISTICS_WRITING_DATE_UT : 2015-09-05 12:00:56
_STATISTICS_TAGS : BPS DURATION NUMBER_OF_FRAMES NUMBER_OF_BYTES

Video
ID : 1
Format : AVC
Format/Info : Advanced Video Codec
Format profile : High@L4.1
Format settings, CABAC : Yes
Format settings, ReFrames : 4 frames
Codec ID : V_MPEG4/ISO/AVC
Duration : 46mn 33s
Bit rate mode : Variable
Bit rate : 19.2 Mbps
Maximum bit rate : 39.0 Mbps
Width : 1 920 pixels
Height : 1 080 pixels
Display aspect ratio : 16:9
Frame rate mode : Constant
Frame rate : 23.976 fps
Color space : YUV
Chroma subsampling : 4:2:0
Bit depth : 8 bits
Scan type : Progressive
Bits/(Pixel*Frame) : 0.387
Stream size : 6.25 GiB (89%)
Default : Yes
Forced : No
Color primaries : BT.709
Transfer characteristics : BT.709
Matrix coefficients : BT.709
Color range : Limited

Audio #1
ID : 2
Format : AC-3
Format/Info : Audio Coding 3
Mode extension : CM (complete main)
Format settings, Endianness : Big
Codec ID : A_AC3
Duration : 46mn 33s
Bit rate mode : Constant
Bit rate : 384 Kbps
Channel(s) : 2 channels
Channel positions : Front: L R
Sampling rate : 48.0 KHz
Bit depth : 16 bits
Compression mode : Lossy
Stream size : 128 MiB (2%)
Title : LostFilm
Language : Russian
Default : Yes
Forced : No

Audio #2
ID : 3
Format : DTS
Format/Info : Digital Theater Systems
Mode : 16
Format settings, Endianness : Big
Codec ID : A_DTS
Duration : 46mn 33s
Bit rate mode : Constant
Bit rate : 1 509 Kbps
Channel(s) : 6 channels
Channel positions : Front: L C R, Side: L R, LFE
Sampling rate : 48.0 KHz
Bit depth : 24 bits
Compression mode : Lossy
Stream size : 502 MiB (7%)
Title : English
Language : English
Default : No
Forced : No

Text
ID : 4
Format : PGS
Muxing mode : zlib
Codec ID : S_HDMV/PGS
Codec ID/Info : The same subtitle format used on BDs/HD-DVDs
Title : English
Language : English
Default : No
Forced : No

Menu
00:00:00.000 : en:00:00:00.000
00:06:04.406 : en:00:06:04.406
00:11:13.965 : en:00:11:13.965
00:16:52.803 : en:00:16:52.803
00:21:39.465 : en:00:21:39.465
00:22:51.954 : en:00:22:51.954
00:26:20.204 : en:00:26:20.204
00:29:20.550 : en:00:29:20.550
00:31:21.880 : en:00:31:21.880
00:36:18.051 : en:00:36:18.051
00:40:06.904 : en:00:40:06.904
00:42:34.719 : en:00:42:34.719
скриншот   скриншот   скриншот   скриншот   скриншот  
pb.wtf



Скачать Сыны Анархии через торрент http://i71.fastpic.ru/big/2015/0905/2b/90821794a4c313cc0b7b696f1c8cdd2b.jpg Скачать фильм Сыны Анархии через торрент бесплантно в хорошем качестве Описание: «Сыны Анархии» — сериал рассказывает о клубе байкеров, которые пытаются защитить свой городок от наркотиков и влияния из вне, ... 10 10 4
Info! Золотая раздача, скачанное не засчитывается.
Торрент: Зарегистрирован [2018-07-14 19:23] · скачан: 11 раз
Статус: √ проверено
Размер: 98.78 GB
Как cкачать? Как скачать Сыны Анархии через торрент | qTorrent

28-11-2019 20:33  

Отключить всю рекламу на сайте

    Дорогой пользователь! Огромная просьба, поблагодарите релизера, оцените раздачу и оставьте свои комментарий, если Вы скачали Сыны Анархии через торрент бесплатно! Внесите свою лепту в развитие PiratBit!
    Комментировать посты могут только пользователи прошедшие не сложную регистрацию
    Показать сообщения:    

    Сыны Анархии через торрент
    Скачать бесплатно Сыны Анархии
    Сыны Анархии скачать торрент
    Сыны Анархии смотреть онлайн
    Cкачать фильм Сыны Анархии бесплатно
    Сыны Анархии скачать торрент в хорошем качестве
    Сыны Анархии смотреть онлайн бесплатно в хорошем качестве


    Вы не можете начинать темы
    Вы не можете отвечать на сообщения
    Вы не можете редактировать свои сообщения
    Вы не можете удалять свои сообщения
    Вы не можете голосовать в опросах
    Вы не можете прикреплять файлы к сообщениям
    Вы можете скачивать файлы