Всегда рабочее зеркало без VPN и Proxy просто перед .vidak.icu напиши любое слово или цифру, Пример http://4z7g.vidak.icu

MVO

Лицензия

1 сезон

1

1 сезон

iTunes

1 сезон

13

1 сезон

Deluxe

pack

Рекомендуем

Repack

30

ВАЖНО

RePack

MK11

RePack

jed

RePack

fifa19

RePack

RDR2

RePack

NEED FOR SPEED™ PAYBACK

Кинопоиск HD

6 сезон

 Острые козырьки 6 сезон

Все сериалы

все сериалы на PB.wtf

RePack

FAR CRY 5
  
Magnet ссылка

Фокстрот / Foxtrot (Самуэль Маоз) [2018, драма, WEB-DL 1080p] MVO [iTunes] pb.wtf

Фокстрот через торрент pb.wtf

Размер: 4 GB | Добавлен: 3 года 11 мес. назад | Торрент скачан:122 раза
Смотреть онлайн Фокстрот | Скачать    Ребята, помогите собрать деньги на оплату серверов!!!

14-07-2018 20:03 Фокстрот Скачать торрент  

Фокстрот / Foxtrot
Год выпуска: 2018
Страна: Израиль, Швейцария, Германия, Франция
Жанр: драма
Продолжительность: 01:52:36
Перевод: Профессиональный многоголосый | iTunes
Субтитры: Русские, иврит

Режиссер: Самуэль Маоз

rating

В ролях:

Лиор Ашкенази, Сара Адлер, Йонатан Ширай, Шира Хаас, Декель Адин, Йехуда Альмагор, Шауль Амир, Гефен Баркай, Рами Бузагло

Описание:

На пороге фешенебельной квартиры Михаэля и Дафны появляется военный эскорт с трагическим известием - их сын погиб, исполняя свой воинский долг. Супруги опустошены ужасной вестью. Михаэль пытается совладать с приступами ярости, боли, отчаяния и дурноты, жена находится под воздействием снотворного. А в это время на отдаленном КПП юные солдаты борются со скукой армейской жизни и переживают редкие мгновения смертельной опасности.

Качество: WEB-DL 1080p
Формат: MKV

Видео: 1920x806 at 24.000 fps, MPEG-4 AVC, ~4571 kbps avg
Аудио#1: Russian: 48 kHz, AAC, 2/0 (L,R) ch, ~123.00 kbps avg
Аудио#2: English: 48 kHz, AC3, 3/2 (L,C,R,l,r) + LFE ch, ~384.00 kbps avg
скриншот  скриншот  скриншот  скриншот  

Общее
Уникальный идентификатор : 42230511569977315488295677643770807774 (0x1FC54CF95C518EEB09CF76A4FB7BC5DE)
Полное имя : D:\Foxtrot.2017.WEB-DL.1080p-ylnian.mkv
Формат : Matroska
Версия формата : Version 4 / Version 2
Размер файла : 4,00 Гбайт
Продолжительность : 1 ч. 52 м.
Общий поток : 5080 Кбит/сек
Название фильма : Foxtrot.2017.WEB-DL.1080p-ylnian
Дата кодирования : UTC 2018-07-14 03:14:29
Программа кодирования : mkvmerge v25.0.0 ('Prog Noir') 64-bit
Библиотека кодирования : libebml v1.3.6 + libmatroska v1.4.9

Видео
Идентификатор : 1
Формат : AVC
Формат/Информация : Advanced Video Codec
Профиль формата : [email protected]
Настройки формата : CABAC / 5 Ref Frames
Параметр CABAC формата : Да
Параметр RefFrames формата : 5 кадров
Идентификатор кодека : V_MPEG4/ISO/AVC
Продолжительность : 1 ч. 52 м.
Битрейт : 4571 Кбит/сек
Ширина : 1920 пикселей
Высота : 806 пикселей
Соотношение сторон : 2,40:1
Режим частоты кадров : Постоянный
Частота кадров : 24,000 кадра/сек
Цветовое пространство : YUV
Субдискретизация насыщенности : 4:2:0
Битовая глубина : 8 бит
Тип развёртки : Прогрессивная
Бит/(Пиксели*Кадры) : 0.123
Размер потока : 3,59 Гбайт (90%)
Заголовок : Foxtrot.2017.WEB-DL.1080p-ylnian
Язык : Hebrew
Default : Да
Forced : Да
Цветовой диапазон : Limited
Основные цвета : BT.709
Характеристики трансфера : BT.709
Коэффициенты матрицы : BT.709

Аудио #1
Идентификатор : 2
Формат : AAC
Формат/Информация : Advanced Audio Codec
Профиль формата : LC
Идентификатор кодека : A_AAC-2
Продолжительность : 1 ч. 52 м.
Битрейт : 123 Кбит/сек
Каналы : 2 канала
Расположение каналов : Front: L R
Частота : 48,0 КГц
Частота кадров : 46,875 кадров/сек (1024 SPF)
Метод сжатия : С потерями
Размер потока : 98,7 Мбайт (2%)
Заголовок : MVO - iTunes
Язык : Russian
Default : Да
Forced : Да

Аудио #2
Идентификатор : 3
Формат : AC-3
Формат/Информация : Audio Coding 3
Идентификатор кодека : A_AC3
Продолжительность : 1 ч. 52 м.
Вид битрейта : Постоянный
Битрейт : 384 Кбит/сек
Каналы : 6 каналов
Расположение каналов : Front: L C R, Side: L R, LFE
Частота : 48,0 КГц
Частота кадров : 31,250 кадров/сек (1536 SPF)
Битовая глубина : 16 бит
Метод сжатия : С потерями
Размер потока : 309 Мбайт (8%)
Язык : Hebrew
ServiceKind/String : Complete Main
Default : Нет
Forced : Нет

Текст #1
Идентификатор : 4
Формат : UTF-8
Идентификатор кодека : S_TEXT/UTF8
Идентификатор кодека/Информация : UTF-8 Plain Text
Продолжительность : 1 ч. 40 м.
Битрейт : 56 бит/сек
ElementCount : 679
Размер потока : 41,6 Кбайт (0%)
Язык : Russian
Default : Нет
Forced : Нет

Текст #2
Идентификатор : 5
Формат : UTF-8
Идентификатор кодека : S_TEXT/UTF8
Идентификатор кодека/Информация : UTF-8 Plain Text
Продолжительность : 1 ч. 40 м.
Битрейт : 42 бит/сек
ElementCount : 673
Размер потока : 31,2 Кбайт (0%)
Язык : Hebrew
Default : Нет
Forced : Нет

pb.wtf



Скачать Фокстрот через торрент https://img11.lostpic.net/2018/07/07/b8c2b346633b1931b6113fdd88b53049.jpg Скачать, смотреть онлайн Фокстрот бесплантно в хорошем качестве Описание: На пороге фешенебельной квартиры Михаэля и Дафны появляется военный эскорт с трагическим известием - их сын погиб, исполняя свой ... 8 10 4
Торрент: Зарегистрирован [2018-07-14 20:03] · скачан: 122 раз
Статус: T временная
Размер: 4 GB
Как cкачать? Как скачать Фокстрот через торрент | UTorrent

% Раздел Тема Автор DL S | L
Азиатские фильмы [ 3.88 GB ] Отряд Фокстрот / Foxtrot Six [2019 BDRip 720p] DUB [IVI] bober100 Скачать
1 | 0
Азиатские фильмы [ 1.46 GB ] Отряд Фокстрот / Foxtrot Six [2019 BDRip] DUB [IVI] bober100 Скачать
1 | 0
Азиатские фильмы [ 8.71 GB ] Отряд Фокстрот / Foxtrot Six [2019 BDRip 1080p] DUB [IVI] bober100 Скачать
1 | 0
T Фильмы [HD 720p, 1080p] (Хороший звук DUB, MVO) [ 12.04 GB ] Фокстрот / Foxtrot [2017 BDRip 1080p by msltel] MVO VO msltel Скачать
1 | 0
T Фильмы [HD 720p, 1080p] (Хороший звук DUB, MVO) [ 3.93 GB ] Фокстрот / Foxtrot [2017 BDRip 720p by msltel] MVO VO msltel Скачать
1 | 0
Фильмы 2017 [DVDrip, WEB-DLRip, HDrip] (DUB, MVO) [ 1.46 GB ] Фокстрот / Foxtrot [2017 BDRip] MVO bober100 Скачать
1 | 0
Фильмы 2018 [DVDrip, WEB-DLRip, HDrip] (DUB, MVO) [ 1.46 GB ] Фокстрот / Foxtrot [2018 WEB-DLRip-AVC] MVO bober100 Скачать
1 | 0

28-11-2019 20:33  

Отключить всю рекламу на сайте

16-07-2018 08:53 Фокстрот Скачать торрент  

не поленюсь и напишу
досмотрел с разочарование (нудно и скучно, почти 2 часа)(почти два часа, не значит, что где то становится интереснее..отнюдь)
единственное, что можно увидеть в фильме "актёрскую игру", но и она вытаскивает фильм максимум на 6.0/10pb.wtf



    Дорогой пользователь! Огромная просьба, поблагодарите релизера, оцените раздачу и оставьте свои комментарий, если Вы скачали Фокстрот через торрент бесплатно!
    Комментировать посты могут только пользователи прошедшие не сложную регистрацию
    Показать сообщения:    

    Фокстрот через торрент
    Скачать бесплатно Фокстрот
    Фокстрот скачать торрент
    Фокстрот смотреть онлайн
    Cкачать фильм Фокстрот бесплатно
    Фокстрот скачать торрент в хорошем качестве
    Фокстрот смотреть онлайн бесплатно в хорошем качестве


    Вы не можете начинать темы
    Вы не можете отвечать на сообщения
    Вы не можете редактировать свои сообщения
    Вы не можете удалять свои сообщения
    Вы не можете голосовать в опросах
    Вы не можете прикреплять файлы к сообщениям
    Вы можете скачивать файлы