Ссылка на приватное зеркало всего за 1$. Внимание количество ограничено!!!

OK

1+1

iTunes

мы

OK

1

WEB-DLRip

Джокер

Пифагор

Ведьмак / The Witcher сериал

iTunes

ПШазам

ОК

Оно 2

iTunes

30
pack

Вам бонус

ВАЖНО

!!Акция!!

Alien_RageХит недели

RePack

Resident Evil 21

ИГРА 18+

pack

RePack

jed

RePack

fifa19

RePack

Assassins Creed: Odyssey

RePack

NEED FOR SPEED™ PAYBACK

4 сезон

9 сезон

Бесстыжие 9 сезон

Все сериалы

все сериалы на PB.wtf

RePack

FAR CRY 5
  

Да поможет нам Бог / So Help Us God (Крэйг МакМахон) [2017 г., Семейный, WEB-DLRip, Любительский (многоголосый)] pb.wtf

Да поможет нам Бог через торрент pb.wtf

Размер: 1.37 GB | Добавлен: 1 год 6 мес. назад | Торрент скачан:21 раз
Скачать  

15-07-2018 06:00 Да поможет нам Бог Скачать торрент  

Да поможет нам Бог / So Help Us God
Год выпуска: 2017
Страна: США
Жанр: Семейный
Продолжительность: 01:38:12
Перевод: Любительский (многоголосый) | Синема УС
Субтитры: Отсутствуют

Режиссер: Крэйг МакМахон

rating

В ролях: Митч Эттер, Julie Van Lith, Мэттью Голдринг

Описание: Когда неблагополучная семья решает в полном составе отправиться в поездку, чтобы захоронить прах бабушки, их старый фургон испытывает на прочность их терпение и веру. Но с Божьей помощью, они всё же понимают истинное значение любви и благоволения.

Качество: WEB-DLRip
Формат: AVI
Видео кодек: XviD
Аудио кодек: AC3
Видео: XviD, 720x400 , 23.9fps, 1600 Kbps
Аудио#1: AC3 , 2 ch , 48 kHz , 384 kbps
Общее
Полное имя : D:So_Help_Us_God__2017.P.WEB-DLRip.14OOMB_.avi
Формат : AVI
Формат/Информация : Audio Video Interleave
Размер файла : 1,37 Гбайт
Продолжительность : 1 ч. 38 м.
Общий поток : 1993 Кбит/сек
Программа кодирования : VirtualDubMod 1.5.10.2 (build 2540/release)
Библиотека кодирования : VirtualDubMod build 2540/release

Видео
Идентификатор : 0
Формат : MPEG-4 Visual
Профиль формата : Advanced Simple@L5
Параметр BVOP формата : 2
Параметр QPel формата : Нет
Параметр GMC формата : Без точки перехода
Параметр матрицы формата : Выборочная
Идентификатор кодека : XVID
Идентификатор кодека/Подсказка : XviD
Продолжительность : 1 ч. 38 м.
Битрейт : 1600 Кбит/сек
Ширина : 720 пикселей
Высота : 400 пикселей
Соотношение сторон : 16:9
Частота кадров : 23,976 кадра/сек
Цветовое пространство : YUV
Субдискретизация насыщенности : 4:2:0
Битовая глубина : 8 бит
Тип развёртки : Прогрессивная
Метод сжатия : С потерями
Бит/(Пиксели*Кадры) : 0.232
Размер потока : 1,10 Гбайт (80%)
Библиотека кодирования : XviD 1.2.1 (UTC 2008-12-04)

Аудио
Идентификатор : 1
Формат : AC-3
Формат/Информация : Audio Coding 3
Расширение режима : CM (complete main)
Параметр Endianness формата : Big
Идентификатор кодека : 2000
Продолжительность : 1 ч. 38 м.
Вид битрейта : Постоянный
Битрейт : 384 Кбит/сек
Каналы : 2 канала
Расположение каналов : Front: L R
Частота : 48,0 КГц
Битовая глубина : 16 бит
Метод сжатия : С потерями
Размер потока : 270 Мбайт (19%)
Выравнивание : Разделение по промежуткам
Продолжительность промежутка : 42 мс. (1,00 видеокадр)
Время предзагрузки промежутка : 500 мс.

pb.wtf



Скачать Да поможет нам Бог через торрент https://b.radikal.ru/b03/1807/61/ea159eba6eb1.jpg Скачать фильм Да поможет нам Бог через торрент бесплантно в хорошем качестве Описание: Когда неблагополучная семья решает в полном составе отправиться в поездку, чтобы захоронить прах бабушки, их старый фургон ... 10 10 4
Торрент: Зарегистрирован [2018-07-15 06:00] · скачан: 21 раз
Статус: T временная
Размер: 1.37 GB
Как cкачать? Как скачать Да поможет нам Бог через торрент | qTorrent

28-11-2019 20:33  

Отключить всю рекламу на сайте

    Дорогой пользователь! Огромная просьба, поблагодарите релизера, оцените раздачу и оставьте свои комментарий, если Вы скачали Да поможет нам Бог через торрент бесплатно! Внесите свою лепту в развитие PiratBit!
    Комментировать посты могут только пользователи прошедшие не сложную регистрацию
    Показать сообщения:    

    Да поможет нам Бог через торрент
    Скачать бесплатно Да поможет нам Бог
    Да поможет нам Бог скачать торрент
    Да поможет нам Бог смотреть онлайн
    Cкачать фильм Да поможет нам Бог бесплатно
    Да поможет нам Бог скачать торрент в хорошем качестве
    Да поможет нам Бог смотреть онлайн бесплатно в хорошем качестве


    Вы не можете начинать темы
    Вы не можете отвечать на сообщения
    Вы не можете редактировать свои сообщения
    Вы не можете удалять свои сообщения
    Вы не можете голосовать в опросах
    Вы не можете прикреплять файлы к сообщениям
    Вы можете скачивать файлы