Ссылка на приватное зеркало всего за 1$. Внимание количество ограничено!!!

iTunes

1+1

iTunes

мы

WEB-DL

1

iTunes

Чернобыль

iTunes

Ральф против интернета

Лицензия

ПШазам

Лицензия

Оно 2

Лицензия

30
pack

Вам бонус

ВАЖНО

!!Акция!!

Alien_RageХит недели

RePack

Resident Evil 21

ИГРА 18+

pack

RePack

jed

!!Акция!!

Alien_Rage

RePack

fifa19

RePack

Assassins Creed: Odyssey

RePack

NEED FOR SPEED™ PAYBACK

3 сезон

9 сезон

Бесстыжие 9 сезон

Все сериалы

все сериалы на PB.wtf

RePack

FAR CRY 5
Ребята, катастрофически не хватает 1900р. для оплаты серверов за Октябрь (всвязи с блокировками трафик упал в 3 раза), 1-2р., выручайте.
  

Тайна зеленого бора (Олег Николаевский) [1960, СССР, приключения, семейный, SATRip от AVP Studio] pb.wtf

Тайна зеленого бора через торрент pb.wtf

Размер: 1.09 GB | Добавлен: 1 год 4 мес. назад | Торрент скачан:19 раз
Скачать  

15-07-2018 08:38 Тайна зеленого бора Скачать торрент  

Тайна зеленого бора
Страна: СССР
Производство: Свердловская к/ст

Жанр: приключения, семейный
Год выпуска: 1960
Продолжительность: 01:18:47

Перевод: Не требуется
Cубтитры: нет
Оригинальная аудиодорожка: русский

Режиссер: Олег Николаевский

В ролях:
Владимир Махов, Виктор Евдокимов, Борис Емлин, Николай Довженко, Саша Савиных, Николай Красулин, Михаил Иванов, В. Волкова, И. Гусева, Генрих Билль, Олег Николаевский, Николай Бадьев, Константин Максимов, Константин Вологдин...
Об актёрах подробней

Описание:
По мотивам повести П. Бажова «Зеленая кобылка».
Действие фильма происходит в начале XX века. Трое друзей из рабочего уральского поселка — Егорка, Петька и Колюшка — враждовали с ребятами с соседней улицы, верховодил которыми Сенька Кожин, смелый и отчаянный парень. Однажды, возвращаясь с рыбалки, Егорка, Петька и Колюшка нашли в лесу раненого «политика» (так называли в поселке революционеров жандармы). Оказав раненому первую помощь, ребята спрятали его и по его просьбе сообщили о нем слесарю Тулункину с Первой Глинки, отцу Сеньки Кожина. И с этого дня Сенька стал лучшим другом ребят.

Исходник: DVB
Качество видео: SATRip
Формат видео: AVI

Видео: 704x512 (1,375:1), 25,000 кадров/сек, XviD ~ 1776 kbps avg, 0.197 bit/pixel
Аудио: 48 kHz, Dolby Digital AC3 2.0, 192 kbps

Раздача от:
Общее
Полное имя : Tayna.zelenogo.bora.1960.SATRip_[New-team]_by_AVP_Studio.avi
Формат : AVI
Формат/Информация : Audio Video Interleave
Размер файла : 1,09 Гбайт
Продолжительность : 1 ч. 18 м.
Общий поток : 1978 Кбит/сек
Программа кодирования : VirtualDubMod 1.5.10.3 | www.virtualdub-fr.org || (build 2550/release)
Библиотека кодирования : VirtualDubMod build 2550/release

Видео
Идентификатор : 0
Формат : MPEG-4 Visual
Профиль формата : Advanced Simple@L5
Настройки формата : BVOP1 / Custom Matrix
Параметр BVOP формата : 1
Параметр QPel формата : Нет
Параметр GMC формата : Без точки перехода
Параметр матрицы формата : Выборочная
Идентификатор кодека : XVID
Идентификатор кодека/Подсказка : XviD
Продолжительность : 1 ч. 18 м.
Битрейт : 1776 Кбит/сек
Ширина : 704 пикселя
Высота : 512 пикселей
Соотношение сторон : 1,375
Частота кадров : 25,000 кадров/сек
Цветовое пространство : YUV
Субдискретизация насыщенности : 4:2:0
Битовая глубина : 8 бит
Тип развёртки : Прогрессивная
Метод сжатия : С потерями
Бит/(Пиксели*Кадры) : 0.197
Размер потока : 1001 Мбайт (90%)
Библиотека кодирования : XviD 73

Аудио
Идентификатор : 1
Формат : AC-3
Формат/Информация : Audio Coding 3
Идентификатор кодека : 2000
Продолжительность : 1 ч. 18 м.
Вид битрейта : Постоянный
Битрейт : 192 Кбит/сек
Каналы : 2 канала
Расположение каналов : Front: L R
Частота : 48,0 КГц
Частота кадров : 31,250 кадров/сек (1536 SPF)
Битовая глубина : 16 бит
Метод сжатия : С потерями
Размер потока : 108 Мбайт (10%)
Выравнивание : Разделение по промежуткам
Продолжительность промежутка : 40 мс. (1,00 видеокадр)
Время предзагрузки промежутка : 500 мс
pb.wtf



Скачать Тайна зеленого бора через торрент http://picplus.ru/img/1807/15/7b94c081.png Скачать фильм Тайна зеленого бора через торрент бесплантно в хорошем качестве Описание:По мотивам повести П. Бажова «Зеленая кобылка».Действие фильма происходит в начале XX века. Трое друзей из рабочего уральского ... 5 10 1
Info! Золотая раздача, скачанное не засчитывается.
Торрент: Зарегистрирован [2018-07-15 08:38] · скачан: 19 раз
Статус: √ проверено
Размер: 1.09 GB
Как cкачать? Как скачать Тайна зеленого бора через торрент | qTorrent

% Раздел Тема Автор DL S | L
Кино СССР [ 1.09 GB ] Тайна зеленого бора [1960 СССР SATRip-AVC от AVP Studio] AVP Studio Скачать
1 | 0

28-11-2019 20:33  

Отключить всю рекламу на сайте

    Дорогой пользователь! Огромная просьба, поблагодарите релизера, оцените раздачу и оставьте свои комментарий, если Вы скачали Тайна зеленого бора через торрент бесплатно! Внесите свою лепту в развитие PiratBit!
    Комментировать посты могут только пользователи прошедшие не сложную регистрацию
    Показать сообщения:    

    Тайна зеленого бора через торрент
    Скачать бесплатно Тайна зеленого бора
    Тайна зеленого бора скачать торрент
    Тайна зеленого бора смотреть онлайн
    Cкачать фильм Тайна зеленого бора бесплатно
    Тайна зеленого бора скачать торрент в хорошем качестве
    Тайна зеленого бора смотреть онлайн бесплатно в хорошем качестве


    Вы не можете начинать темы
    Вы не можете отвечать на сообщения
    Вы не можете редактировать свои сообщения
    Вы не можете удалять свои сообщения
    Вы не можете голосовать в опросах
    Вы не можете прикреплять файлы к сообщениям
    Вы можете скачивать файлы