Ссылка на приватное зеркало нашего сайта всего за 1$. Внимание количество ограничено!!!

2 сезон

iTunes

1 сезон

1

2 сезон

2 сезон

iTunes

1 сезон

RePack

30

Новинка

ВАЖНО

ИГРА 18+

pack

RePack

MK11
pack

Забери бонус

RePack

jed

!!Акция!!

Alien_Rage

RePack

fifa19

RePack

Assassins Creed: Odyssey

RePack

NEED FOR SPEED™ PAYBACK

4 сезон

9 сезон

Бесстыжие 9 сезон

Все сериалы

все сериалы на PB.wtf

RePack

FAR CRY 5
  

Тарзан. Легенда / The Legend of Tarzan (Дэвид Йейтс) [2016, фэнтези, боевик, драма, UHD BDRip 2160p] Дубляж - [Лицензия] pb.wtf

Тарзан. Легенда через торрент pb.wtf

Размер: 17.65 GB | Добавлен: 2 года 4 мес. назад | Торрент скачан:40 раз
Скачать  

15-07-2018 09:10 Тарзан. Легенда Скачать торрент  

Тарзан. Легенда / The Legend of Tarzan

Год выпуска: 2016
Страна: Великобритания, Канада, США
Жанр: фэнтези, боевик, драма, мелодрама, приключения
Продолжительность: 01:49:58
Перевод: Дублированный
Субтитры: Русские, английские
Режиссер: Дэвид Йейтс
В ролях:

Александр Скарсгард (John Clayton / Tarzan), Марго Робби (Jane Clayton), Сэмюэл Л. Джексон (George Washington Williams), Кристоф Вальц (Leon Rom), Джимон Хонсу (Chief Mbonga), Джим Бродбент (Prime Minister), Каспер Крамп (Major Kerckhover), Хэдли Фрайзер (Tarzan's Father), Женевьев О’Рейли (Tarzan's Mother), Саймон Расселл Бил (Mr. Frum), Рори Дж. Сапер (Young Tarzan (18 Years)), Кристиан Стивенс (Young Tarzan (5 Years))
Описание:
Приспособившийся к жизни в Лондоне Тарзан возвращается в свой бывший дом, в джунгли, чтобы разобраться в том, что происходит в лагере горнодобывающей компании.
Рейтинг:

MPAA: PG-13 - Детям до 13 лет просмотр не желателен
Качество: UHD BDRip 2160p
Формат: MKV
Видео: HEVC, HDR, 12.0 Mбит/с, 3840x1600, 23.976 Кадр/с
Аудио #1: Русский / AC3 / 48 KHz / 5.1 ch / 448 Kbps Дубляж - BD CEE
Аудио #2: Русский / DTS-HD MA, 5218 kb/s, 8 ch, 48 Kbps Дубляж by krat11
Аудио #3: Английский /AC3 / 48 KHz / 5.1 ch / 640 KbpsOriginal
Аудио #4: Английский / Atmos TrueHD, 4851 kb/s, 8 ch, 48 Kbps Original
Навигация по главам: есть
Аудио #2: Сделано из оригинальной DTS-HD MA дорожки и дублированной DD CEE дорожки
путём замены всех участков с английской речью, отголосками и эхом на аналогичные с дублированной дорожки во всех каналах
\The.Legend.of.Tarzan.2016.2160p.BluRay.x265.10bit.HDR.TrueHD.7.1.Atmos-SpaceHD13.mkv
Format : Matroska
Format version : Version 4 / Version 2
File size : 17.7 GiB
Duration : 1 h 49 min
Overall bit rate mode : Variable
Overall bit rate : 23.0 Mb/s
Movie name : The.Legend.of.Tarzan.2016.2160p.BluRay.x265.10bit.HDR.TrueHD.7.1.Atmos-SpaceHD13
Encoded date : UTC 2018-07-09 22:20:29
Writing application : mkvmerge v24.0.0 ('Beyond The Pale') 64-bit
Writing library : libebml v1.3.6 + libmatroska v1.4.9

Video
ID : 1
Format : HEVC
Format/Info : High Efficiency Video Coding
Commercial name : HDR10
Format profile : Main 10@L5.1@High
Codec ID : V_MPEGH/ISO/HEVC
Duration : 1 h 49 min
Bit rate : 12.0 Mb/s
Width : 3 840 pixels
Height : 1 600 pixels
Display aspect ratio : 2.40:1
Frame rate mode : Constant
Frame rate : 23.976 (24000/1001) FPS
Color space : YUV
Chroma subsampling : 4:2:0 (Type 2)
Bit depth : 10 bits
Bits/(Pixel*Frame) : 0.081
Stream size : 9.20 GiB (52%)
Title : The.Legend.of.Tarzan.2016.2160p.BluRay.x265.10bit.HDR.TrueHD.7.1.Atmos-SpaceHD13
Writing library : x265 2.5+17-f8ae7afc1f61:[Windows][GCC 6.2.1][64 bit] 10bit
Encoding settings : cpuid=1049087 / frame-threads=4 / numa-pools=12,12 / wpp / no-pmode / no-pme / no-psnr / no-ssim / log-level=2 / input-csp=1 / input-res=3840x1600 / interlace=0 / total-frames=0 / level-idc=51 / high-tier=1 / uhd-bd=0 / ref=4 / no-allow-non-conformance / repeat-headers / annexb / aud / hrd / info / hash=0 / no-temporal-layers / no-open-gop / min-keyint=1 / keyint=24 / bframes=4 / b-adapt=2 / b-pyramid / bframe-bias=0 / rc-lookahead=25 / lookahead-slices=4 / scenecut=40 / no-intra-refresh / ctu=64 / min-cu-size=8 / rect / no-amp / max-tu-size=32 / tu-inter-depth=1 / tu-intra-depth=1 / limit-tu=0 / rdoq-level=2 / dynamic-rd=0.00 / no-ssim-rd / signhide / no-tskip / nr-intra=0 / nr-inter=0 / no-constrained-intra / no-strong-intra-smoothing / max-merge=3 / limit-refs=3 / limit-modes / me=3 / subme=3 / merange=57 / temporal-mvp / weightp / no-weightb / no-analyze-src-pics / deblock=-2:-2 / no-sao / no-sao-non-deblock / rd=4 / no-early-skip / rskip / no-fast-intra / no-tskip-fast / no-cu-lossless / no-b-intra / no-splitrd-skip / rdpenalty=0 / psy-rd=2.00 / psy-rdoq=1.00 / no-rd-refine / analysis-reuse-mode=0 / no-lossless / cbqpoffs=0 / crqpoffs=0 / rc=crf / crf=17.0 / qcomp=0.60 / qpstep=4 / stats-write=0 / stats-read=0 / vbv-maxrate=160000 / vbv-bufsize=160000 / vbv-init=0.9 / crf-max=0.0 / crf-min=0.0 / ipratio=1.40 / pbratio=1.30 / aq-mode=1 / aq-strength=1.00 / cutree / zone-count=0 / no-strict-cbr / qg-size=32 / no-rc-grain / qpmax=69 / qpmin=0 / no-const-vbv / sar=1 / overscan=0 / videoformat=5 / range=0 / colorprim=9 / transfer=16 / colormatrix=9 / chromaloc=1 / chromaloc-top=2 / chromaloc-bottom=2 / display-window=0 / master-display=G(13250,34500)B(7500,3000)R(34000,16000)WP(15635,16450)L(40000000,50) / max-cll=1274,315 / min-luma=0 / max-luma=1023 / log2-max-poc-lsb=8 / vui-timing-info / vui-hrd-info / slices=1 / opt-qp-pps / opt-ref-list-length-pps / no-multi-pass-opt-rps / scenecut-bias=0.05 / no-opt-cu-delta-qp / no-aq-motion / hdr / hdr-opt / no-dhdr10-opt / analysis-reuse-level=5 / scale-factor=0 / refine-intra=0 / refine-inter=0 / refine-mv=0 / no-limit-sao / ctu-info=0
Default : Yes
Forced : No
Color range : Limited
Color primaries : BT.2020
Transfer characteristics : PQ
Matrix coefficients : BT.2020 non-constant
Mastering display color pri : Display P3
Mastering display luminance : min: 0.0050 cd/m2, max: 4000 cd/m2
Maximum Content Light Level : 1274 cd/m2
Maximum Frame-Average Light : 315 cd/m2

Audio #1
ID : 2
Format : DTS
Format/Info : Digital Theater Systems
Format profile : MA / Core
Codec ID : A_DTS
Duration : 1 h 49 min
Bit rate mode : Variable / Constant
Bit rate : 5 218 kb/s / 1 509 kb/s
Channel(s) : 8 channels / 6 channels
Channel positions : Front: L C R, Side: L R, Back: L R, LFE / Front: L C R, Side: L R, LFE
Sampling rate : 48.0 kHz
Frame rate : 93.750 FPS (512 SPF)
Bit depth : 24 bits
Compression mode : Lossless / Lossy
Stream size : 4.01 GiB (23%)
Title : The.Legend.of.Tarzan.2016.2160p.BluRay.x265.10bit.HDR.TrueHD.7.1.Atmos-SpaceHD13[Dub]
Language : Russian
Default : No
Forced : No

Audio #2
ID : 3
Format : AC-3
Format/Info : Audio Coding 3
Codec ID : A_AC3
Duration : 1 h 49 min
Bit rate mode : Constant
Bit rate : 448 kb/s
Channel(s) : 6 channels
Channel positions : Front: L C R, Side: L R, LFE
Sampling rate : 48.0 kHz
Frame rate : 31.250 FPS (1536 SPF)
Bit depth : 16 bits
Compression mode : Lossy
Stream size : 352 MiB (2%)
Title : The.Legend.of.Tarzan.2016.2160p.BluRay.x265.10bit.HDR.TrueHD.7.1.Atmos-SpaceHD13[Dub]
Language : Russian
Service kind : Complete Main
Default : Yes
Forced : Yes

Audio #3
ID : 4
Format : TrueHD
Format profile : TrueHD+Atmos / TrueHD
Codec ID : A_TRUEHD
Duration : 1 h 49 min
Bit rate mode : Variable
Bit rate : 4 851 kb/s
Maximum bit rate : 8 097 kb/s
Channel(s) : Object Based / 8 channels
Channel positions : Object Based / Front: L C R, Side: L R, Back: L R, LFE
Sampling rate : / 48.0 kHz
Frame rate : 1 200.000 FPS (40 SPF)
Compression mode : Lossless
Stream size : 3.73 GiB (21%)
Title : The.Legend.of.Tarzan.2016.2160p.BluRay.x265.10bit.HDR.TrueHD.7.1.Atmos-SpaceHD13
Language : English
Default : No
Forced : No

Audio #4
ID : 5
Format : AC-3
Format/Info : Audio Coding 3
Codec ID : A_AC3
Duration : 1 h 49 min
Bit rate mode : Constant
Bit rate : 384 kb/s
Channel(s) : 6 channels
Channel positions : Front: L C R, Side: L R, LFE
Sampling rate : 48.0 kHz
Frame rate : 31.250 FPS (1536 SPF)
Bit depth : 16 bits
Compression mode : Lossy
Stream size : 302 MiB (2%)
Title : The.Legend.of.Tarzan.2016.2160p.BluRay.x265.10bit.HDR.TrueHD.7.1.Atmos-SpaceHD13
Language : English
Service kind : Complete Main
Default : No
Forced : No

Text #1
ID : 6
Format : PGS
Muxing mode : zlib
Codec ID : S_HDMV/PGS
Codec ID/Info : Picture based subtitle format used on BDs/HD-DVDs
Duration : 1 h 47 min
Bit rate : 19.6 kb/s
Count of elements : 1880
Stream size : 15.1 MiB (0%)
Language : English
Default : No
Forced : No

Text #2
ID : 7
Format : PGS
Muxing mode : zlib
Codec ID : S_HDMV/PGS
Codec ID/Info : Picture based subtitle format used on BDs/HD-DVDs
Duration : 1 h 49 min
Bit rate : 15.6 kb/s
Count of elements : 1426
Stream size : 12.2 MiB (0%)
Language : Russian
Default : Yes
Forced : Yes

Text #3
ID : 8
Format : PGS
Muxing mode : zlib
Codec ID : S_HDMV/PGS
Codec ID/Info : Picture based subtitle format used on BDs/HD-DVDs
Duration : 1 h 43 min
Bit rate : 2 039 b/s
Count of elements : 86
Stream size : 1.51 MiB (0%)
Language : Russian
Default : No
Forced : No

Text #4
ID : 9
Format : PGS
Muxing mode : zlib
Codec ID : S_HDMV/PGS
Codec ID/Info : Picture based subtitle format used on BDs/HD-DVDs
Duration : 1 h 43 min
Bit rate : 26.1 kb/s
Count of elements : 1424
Stream size : 19.4 MiB (0%)
Language : Russian
Default : No
Forced : No

Menu
00:00:00.000 : en:0:00:00.000
00:10:56.238 : en:0:10:56.238
00:20:47.204 : en:0:20:47.204
00:28:26.287 : en:0:28:26.287
00:40:49.196 : en:0:40:49.196
00:51:03.310 : en:0:51:03.310
01:01:15.296 : en:1:01:15.296
01:10:22.635 : en:1:10:22.635
01:20:58.144 : en:1:20:58.144
01:29:09.344 : en:1:29:09.344
01:42:06.495 : en:1:42:06.495
pb.wtf



Скачать Тарзан. Легенда через торрент https://c.radikal.ru/c23/1807/fd/fdb3f2a3eb6a.png Скачать фильм Тарзан. Легенда через торрент бесплантно в хорошем качестве Описание: Приспособившийся к жизни в Лондоне Тарзан возвращается в свой бывший дом, в джунгли, чтобы разобраться в том, что происходит в ... 10 10 3
Торрент: Зарегистрирован [2018-07-15 09:10] · скачан: 40 раз
Статус: √ проверено
Размер: 17.65 GB
Как cкачать? Как скачать Тарзан. Легенда через торрент | qTorrent

% Раздел Тема Автор DL S | L
Ultra HD (UHD: 2K, 4K, 8K) — видео сверхвысокой чёткости [ 52.3 GB ] Тарзан. Легенда / The Legend of Tarzan [2016 UHD Blu-ray 2160p] - [] sheker187 Скачать
1 | 0
Фильмы [HD 720p, 1080p] (Хороший звук DUB, MVO) [ 5.76 GB ] Грейстоук. Легенда о Тарзане повелителе обезьян / Greystoke: The Legend of Tarzan Lord of the Apes [1984 BDRip 720p by msltel] DUB MVO 2 x AVO msltel Скачать
1 | 0
Фильмы [HD 720p, 1080p] (Хороший звук DUB, MVO) [ 15.08 GB ] Грейстоук. Легенда о Тарзане повелителе обезьян / Greystoke: The Legend of Tarzan Lord of the Apes [1984 BDRip 1080p by msltel] DUB MVO 2 x AVO msltel Скачать
1 | 0
Фильмы [HD 720p, 1080p] (Хороший звук DUB, MVO) [ 7.73 GB ] Тарзан. Легенда / The Legend of Tarzan [ BDRip 1080p] DUB + MVO potroks Скачать
1 | 0
Ultra HD (UHD: 2K, 4K, 8K) — видео сверхвысокой чёткости [ 43.48 GB ] Тарзан. Легенда / The Legend of Tarzan [2016 UHD BDRemux 2160p] DUB [] bober100 Скачать
1 | 0
Фильмы [HD 720p, 1080p] (Хороший звук DUB, MVO) [ 4.37 GB ] Тарзан. Легенда / The Legend of Tarzan [2016 BDRip 720p] DUB [] bober100 Скачать
1 | 0
Ultra HD (UHD: 2K, 4K, 8K) — видео сверхвысокой чёткости [ 50.55 GB ] Тарзан. Легенда / The Legend of Tarzan [2016 UHD WEBRip 2160p] - [] sheker187 Скачать
1 | 0

28-11-2019 20:33  

Отключить всю рекламу на сайте

    Дорогой пользователь! Огромная просьба, поблагодарите релизера, оцените раздачу и оставьте свои комментарий, если Вы скачали Тарзан. Легенда через торрент бесплатно! Внесите свою лепту в развитие PiratBit!
    Комментировать посты могут только пользователи прошедшие не сложную регистрацию
    Показать сообщения:    

    Тарзан. Легенда через торрент
    Скачать бесплатно Тарзан. Легенда
    Тарзан. Легенда скачать торрент
    Тарзан. Легенда смотреть онлайн
    Cкачать фильм Тарзан. Легенда бесплатно
    Тарзан. Легенда скачать торрент в хорошем качестве
    Тарзан. Легенда смотреть онлайн бесплатно в хорошем качестве


    Вы не можете начинать темы
    Вы не можете отвечать на сообщения
    Вы не можете редактировать свои сообщения
    Вы не можете удалять свои сообщения
    Вы не можете голосовать в опросах
    Вы не можете прикреплять файлы к сообщениям
    Вы можете скачивать файлы