новый адрес пиратбит piratbit
Мега распродажа FORZA HORIZON 4 ULTIMATE+ВСЕ DLC+ОНЛАЙН всего за 499р. 349 руб. (супер цена). Внимание количество ограничено!!!

iTunes

1+1

iTunes

мы

iTunes

1

iTunes

Чернобыль

iTunes

Ральф против интернета

Лицензия

ПШазам

Лицензия

Игра престолов

Лицензия

30
pack

ВАЖНО

!!Акция!!

Alien_RageХит недели

RePack

Resident Evil 21

ИГРА 18+

pack

RePack

Metro:Exodus

!!Акция!!

Alien_Rage

RePack

fifa19

RePack

Assassins Creed: Odyssey

RePack

NEED FOR SPEED™ PAYBACK

3 сезон

9 сезон

Бесстыжие 9 сезон

Все сериалы

все сериалы на PB.wtf

RePack

FAR CRY 5
Ребята, катастрофически не хватает 1900р. для оплаты серверов за Октябрь (всвязи с блокировками трафик упал в 3 раза), 1-2р., выручайте.
  

Чернокнижник 3: Последняя битва / Warlock III: The End of Innocence (Эрик Фрисер) [1999, ужасы, фэнтези, BDRip-HEVC 1080p, (10Bit)] DVO pb.wtf

Чернокнижник 3: Последняя битва через торрент pb.wtf

Размер: 6.04 GB | Добавлен: 1 год 3 мес. назад | Торрент скачан:53 раза
Скачать  

15-07-2018 11:14 Чернокнижник 3: Последняя битва Скачать торрент  

Чернокнижник 3: Последняя битва / Warlock III: The End of Innocence
• Год выпуска: 1999
• Страна: США
• Жанр: ужасы, фэнтези
• Продолжительность: 01:34:32
• Перевод: Профессиональный (двухголосый) | Стар Трэк
• Субтитры: отсутствуют

• Режиссер: Эрик Фрисер

rating

В ролях:

Брюс Пэйн, Эшли Лоуренс, Пол Френсис, Ян Швайтерман, Энджел Борис, Рик Хёрст, Боти Блисс, Имонн Дрэйпер, Катрин Сиггинз, Маджелла Корли

Описание:

Он вернулся, чтобы обрести бессмертие. Для этого он должен забрать ее кровь и душу. 350 лет назад ведьма из Новой Англии Кэтрин Миллер вырвала свою дочь из лап демонического Чернокнижника. Чтобы обрести бессмертие, он должен был забрать кровь и душу дочери Кэтрин, сделав ее вечной Невестой Тьмы.
Но Чернокнижнику пришлось затаиться до наших дней. Крис Миллер росла сиротой. Узнав об оставленном ей в наследство заброшенном доме 16-го века, она решила осмотреть его и провести в нем выходные.
Крис сразу почувствовала какую — то странную ауру дома, а ночью ее мучили кошмары и необычные видения. Но приехавшие в гости друзья рассеяли ее страхи. А в самый разгар веселья в доме появился незнакомец с изящными манерами, очаровавший всех присутствующих.
Этот нежданный гость — Чернокнижник, явившийся забрать то, что обеспечит ему бессмертие — душу Крис. Но жертва должна отдать ее добровольно…

скриншот  

• Качество: BDRip-HEVC 1080p
• Формат: MKV

• Видео: x265, 10Bit, 1920х1080 (16:9), 23,976 fps, ~8 508 kb/s, 0.171 bit/pixe
• Аудио#1: Русский (AC3, 2 ch, 192 Кбит/с) / Двухголосый (Стар Трэк)
• Аудио#2: Английский (AC3, 2 ch, 448 Кбит/с)
скриншот  скриншот  скриншот  скриншот  скриншот  

General
Unique ID : 192625924206949035050222093482080284351 (0x90EA674F05D92F3819C1A0CE08BB2EBF)
Complete name : X:Чернокнижник 3 Последняя битва (1999) BDRip 1080p [HEVC] 10Bit_Druidblack.mkv
Format : Matroska
Format version : Version 4 / Version 2
File size : 6.04 GiB
Duration : 1 h 34 min
Overall bit rate : 9 150 kb/s
Encoded date : UTC 2018-07-14 19:50:31
Writing application : mkvmerge v24.0.0 ('Beyond The Pale') 64-bit
Writing library : libebml v1.3.6 + libmatroska v1.4.9
Cover : Yes
Attachments : cover.jpg
Encoding Gui : Hybrid 2018.06.04.1

Video
ID : 1
Format : HEVC
Format/Info : High Efficiency Video Coding
Format profile : Main 10@L5.1@High
Codec ID : V_MPEGH/ISO/HEVC
Duration : 1 h 34 min
Bit rate : 8 508 kb/s
Width : 1 920 pixels
Height : 1 080 pixels
Display aspect ratio : 16:9
Frame rate mode : Constant
Frame rate : 23.976 (24000/1001) FPS
Color space : YUV
Chroma subsampling : 4:2:0 (Type 0)
Bit depth : 10 bits
Bits/(Pixel*Frame) : 0.171
Stream size : 5.62 GiB (93%)
Writing library : x265 2.8+12-9cde2c278464:[Windows][GCC 7.3.0][64 bit] 10bit
Encoding settings : cpuid=1049071 / frame-threads=4 / wpp / no-pmode / no-pme / no-psnr / no-ssim / log-level=2 / input-csp=1 / input-res=1920x1080 / interlace=0 / total-frames=0 / level-idc=51 / high-tier=1 / uhd-bd=0 / ref=5 / no-allow-non-conformance / no-repeat-headers / annexb / no-aud / no-hrd / info / hash=0 / no-temporal-layers / open-gop / min-keyint=23 / keyint=240 / gop-lookahead=0 / bframes=8 / b-adapt=2 / b-pyramid / bframe-bias=0 / rc-lookahead=40 / lookahead-slices=6 / scenecut=40 / radl=0 / no-intra-refresh / ctu=64 / min-cu-size=8 / rect / no-amp / max-tu-size=32 / tu-inter-depth=3 / tu-intra-depth=3 / limit-tu=4 / rdoq-level=2 / dynamic-rd=0.00 / no-ssim-rd / signhide / no-tskip / nr-intra=0 / nr-inter=0 / no-constrained-intra / no-strong-intra-smoothing / max-merge=3 / limit-refs=3 / limit-modes / me=3 / subme=7 / merange=57 / temporal-mvp / weightp / weightb / no-analyze-src-pics / deblock=-3:-3 / no-sao / no-sao-non-deblock / rd=4 / no-early-skip / rskip / no-fast-intra / no-tskip-fast / no-cu-lossless / no-b-intra / no-splitrd-skip / rdpenalty=0 / psy-rd=2.00 / psy-rdoq=1.00 / no-rd-refine / no-lossless / cbqpoffs=0 / crqpoffs=0 / rc=crf / crf=21.0 / qcomp=0.60 / qpstep=4 / stats-write=0 / stats-read=0 / vbv-maxrate=160000 / vbv-bufsize=160000 / vbv-init=0.9 / crf-max=0.0 / crf-min=0.0 / ipratio=1.40 / pbratio=1.30 / aq-mode=1 / aq-strength=1.00 / cutree / zone-count=1 / zones: / start-frame=130150 / end-frame=136008 / qp=35 / no-strict-cbr / qg-size=32 / no-rc-grain / qpmax=69 / qpmin=0 / no-const-vbv / sar=0 / overscan=0 / videoformat=5 / range=0 / colorprim=2 / transfer=1 / colormatrix=1 / chromaloc=1 / chromaloc-top=0 / chromaloc-bottom=0 / display-window=0 / max-cll=0,0 / min-luma=0 / max-luma=1023 / log2-max-poc-lsb=8 / vui-timing-info / vui-hrd-info / slices=1 / no-opt-qp-pps / no-opt-ref-list-length-pps / no-multi-pass-opt-rps / scenecut-bias=0.05 / no-opt-cu-delta-qp / no-aq-motion / no-hdr / no-hdr-opt / no-dhdr10-opt / no-idr-recovery-sei / analysis-reuse-level=5 / scale-factor=0 / refine-intra=0 / refine-inter=0 / refine-mv=0 / no-limit-sao / ctu-info=0 / no-lowpass-dct / refine-mv-type=0 / copy-pic=1 / max-ausize-factor=1.0 / no-dynamic-refine / no-single-sei
Language : English
Default : Yes
Forced : Yes
Color range : Limited
Transfer characteristics : BT.709
Matrix coefficients : BT.709

Audio #1
ID : 2
Format : AC-3
Format/Info : Audio Coding 3
Codec ID : A_AC3
Duration : 1 h 34 min
Bit rate mode : Constant
Bit rate : 192 kb/s
Channel(s) : 2 channels
Channel positions : Front: L R
Sampling rate : 48.0 kHz
Frame rate : 31.250 FPS (1536 SPF)
Bit depth : 16 bits
Compression mode : Lossy
Stream size : 130 MiB (2%)
Title : DVO Стар Трэк
Language : Russian
Service kind : Complete Main
Default : Yes
Forced : No

Audio #2
ID : 3
Format : AC-3
Format/Info : Audio Coding 3
Codec ID : A_AC3
Duration : 1 h 34 min
Bit rate mode : Constant
Bit rate : 448 kb/s
Channel(s) : 2 channels
Channel positions : Front: L R
Sampling rate : 48.0 kHz
Frame rate : 31.250 FPS (1536 SPF)
Bit depth : 16 bits
Compression mode : Lossy
Stream size : 303 MiB (5%)
Language : English
Service kind : Complete Main
Default : No
Forced : No

pb.wtf



Скачать Чернокнижник 3: Последняя битва через торрент http://i105.fastpic.ru/big/2018/0714/69/e06a5fb3262710a95ad32a8a8f6ea869.jpg Скачать фильм Чернокнижник 3: Последняя битва через торрент бесплантно в хорошем качестве Описание: Он вернулся, чтобы обрести бессмертие. Для этого он должен забрать ее кровь и душу. 350 лет назад ведьма из Новой Англии Кэтрин ... 10 10 5
Торрент: Зарегистрирован [2018-07-15 11:14] · скачан: 53 раз
Статус: √ проверено
Размер: 6.04 GB
Как cкачать? Как скачать Чернокнижник 3: Последняя битва через торрент | qTorrent


>> Регистрируемся здесь <<






Отзывы и комментарии о схеме читаем и пишем здесь: ---> Отзывы и комментарии о схеме

Новые благодарочки в телеграм довольных пользователей:
скриншот   скриншот   скриншот   скриншот   скриншот
    Дорогой пользователь! Огромная просьба, поблагодарите релизера, оцените раздачу и оставьте свои комментарий, если Вы скачали Чернокнижник 3: Последняя битва через торрент бесплатно! Внесите свою лепту в развитие PiratBit!
    Комментировать посты могут только пользователи прошедшие не сложную регистрацию
    Показать сообщения:    

    Чернокнижник 3: Последняя битва через торрент
    Скачать бесплатно Чернокнижник 3: Последняя битва
    Чернокнижник 3: Последняя битва скачать торрент
    Чернокнижник 3: Последняя битва смотреть онлайн
    Cкачать фильм Чернокнижник 3: Последняя битва бесплатно
    Чернокнижник 3: Последняя битва скачать торрент в хорошем качестве
    Чернокнижник 3: Последняя битва смотреть онлайн бесплатно в хорошем качестве


    Вы не можете начинать темы
    Вы не можете отвечать на сообщения
    Вы не можете редактировать свои сообщения
    Вы не можете удалять свои сообщения
    Вы не можете голосовать в опросах
    Вы не можете прикреплять файлы к сообщениям
    Вы можете скачивать файлы