Достать ножи: Стеклянная луковица

MVO

Добыча

Дубляж

Уэнсдэй

1 сезон

Тор

Дубляж

13 клиническая

1 сезон

Жестокая ночь

MVO

Одни из нас

1 сезон

Deluxe

pack

Рекомендуем

30

Пиратка

ВАЖНО

ВАЖНО

Ghostwire

Пиратка

jed

RePack

nioh2

RePack

RDR2

RePack

NEED FOR SPEED™ PAYBACK

RePack

скачать торрент

Кинопоиск HD

Острые козырьки 6 сезон

6 сезон

FAR CRY 6

RePack

скачать торрент

Лицензия

скачать торрент

MVO

1

1 сезон

скачать торрент

1 сезон

скачать торрент

Лицензия

  

Нерожденный / The Unborn (Дэвид С. Гойер) [2009 г., ужасы, триллер, драма, детектив, BDRip 1080p, HEVC (10Bit), Дубляж] [Unrated Edition]

Нерожденный через торрент pb.wtf

Размер: 3.7 GB | Добавлен: 4 года 6 мес. назад | Торрент скачан:137 раз
Смотреть онлайн | Скачать | Поддержите нас   

15-07-2018 11:17 Нерожденный Скачать торрент  

Нерожденный / The Unborn
Год выпуска: 2009
Страна: США
Жанр: ужасы, триллер, драма, детектив
Продолжительность: 01:28:43
Перевод: Дубляж
Субтитры: Отсутствуют

Режиссер: Дэвид С. Гойер

rating

В ролях: Одетт Юстман, Гари Олдман, Кэм Жиганде, Миган Гуд, Идрис Эльба, Джейн Александр, Аттикус Шаффер, Джеймс Римар, Карла Гуджино, К.С. Ли

Описание: Кейси Белл ненавидела свою мать за то, что та ее бросила. Но, когда начинает твориться необъяснимое, Кейси понимает, почему мама ушла. Измученная кошмарами и присутствием злого духа, она обращается к единственному человеку, который, возможно, способен ее спасти — опытному советчику по спиритуальным вопросам, а также известному экзорцисту по имени Сендак.
Доп. информация: -
H.265/HEVC (High Efficiency Video Coding) - это новый стандарт кодирования видео.
- Стандарт H.265/HEVC является логическим продолжением стандарта
H.264/AVC (Advanced Video Coding), и характеризуется более эффективными
алгоритмами сжатия, а также поддержкой высокого разрешения вплоть до 8K UHD
(8192x4320). Первая версия стандарта H.265 была опубликована в начале 2013 года.
- Рипы в фомате HEVC поддерживается не всеми аппаратными проигрывателями.
- Для корректного воспроизведения может потребоваться обновление ПО.
- Владельцам несовместимого железа просьба не беспокоить,
есть альтернативные релизы.
Качество: BDRip 1080p
Формат: MKV
Видео кодек: H.265
Аудио кодек: AC3
Видео: 1920x800, ~5518 Kbps
Аудио: AC3, 6 ch, 448 Kbps
Релиз от: HANNIBAL Семпл
Общее
Уникальный идентификатор : 225678031781575360195428433258232190755 (0xA9C80207090D2769AE05DF5700109723)
Полное имя : J:\ФИЛЬМЫ\The Unborn (Unrated) (2009) BDRip 1080p [HEVC] 10Bit.mkv
Формат : Matroska
Версия формата : Version 4 / Version 2
Размер файла : 3,70 Гбайт
Продолжительность : 1 ч. 28 м.
Общий поток : 5967 Кбит/сек
Название фильма : Нерожденный.BDRemux
Дата кодирования : UTC 2017-08-09 19:02:31
Программа кодирования : mkvmerge v13.0.0 ('The Juggler') 64bit
Библиотека кодирования : libebml v1.3.4 + libmatroska v1.4.5
Обложка : Yes
Attachments : cover.jpg

Видео
Идентификатор : 1
Формат : HEVC
Формат/Информация : High Efficiency Video Coding
Профиль формата : Main [email protected]@Main
Идентификатор кодека : V_MPEGH/ISO/HEVC
Продолжительность : 1 ч. 28 м.
Битрейт : 5518 Кбит/сек
Ширина : 1920 пикселей
Высота : 800 пикселей
Соотношение сторон : 2,40:1
Режим частоты кадров : Постоянный
Частота кадров : 23,976 (24000/1001) кадра/сек
Цветовое пространство : YUV
Субдискретизация насыщенности : 4:2:0
Битовая глубина : 10 бит
Бит/(Пиксели*Кадры) : 0.150
Размер потока : 3,42 Гбайт (92%)
Default : Да
Forced : Нет
Цветовой диапазон : Limited
Основные цвета : BT.709
Характеристики трансфера : BT.709
Коэффициенты матрицы : BT.709

Аудио
Идентификатор : 2
Формат : AC-3
Формат/Информация : Audio Coding 3
Идентификатор кодека : A_AC3
Продолжительность : 1 ч. 28 м.
Вид битрейта : Постоянный
Битрейт : 448 Кбит/сек
Каналы : 6 каналов
Расположение каналов : Front: L C R, Side: L R, LFE
Частота : 48,0 КГц
Частота кадров : 31,250 кадров/сек (1536 SPF)
Битовая глубина : 16 бит
Метод сжатия : С потерями
Размер потока : 284 Мбайт (8%)
Язык : Russian
ServiceKind/String : Complete Main
Default : Да
Forced : Нет

Меню
00:00:00.000 : en:Chapter 01
00:03:29.333 : en:Chapter 02
00:07:20.189 : en:Chapter 03
00:09:39.619 : en:Chapter 04
00:14:01.423 : en:Chapter 05
00:18:14.760 : en:Chapter 06
00:21:50.976 : en:Chapter 07
00:26:11.152 : en:Chapter 08
00:29:08.455 : en:Chapter 09
00:32:57.517 : en:Chapter 10
00:36:13.212 : en:Chapter 11
00:41:41.123 : en:Chapter 12
00:45:51.290 : en:Chapter 13
00:50:57.679 : en:Chapter 14
00:56:16.539 : en:Chapter 15
01:00:49.020 : en:Chapter 16
01:05:13.743 : en:Chapter 17
01:10:25.930 : en:Chapter 18
01:16:39.511 : en:Chapter 19
01:21:39.519 : en:Chapter 20
01:28:43.693 : en:Chapter 21




Скачать Нерожденный через торрент https://a.radikal.ru/a29/1807/43/ddc1e06e3156.jpg Скачать, смотреть онлайн Нерожденный бесплантно в хорошем качестве Описание: Кейси Белл ненавидела свою мать за то, что та ее бросила. Но, когда начинает твориться необъяснимое, Кейси понимает, почему мама ... 10 10 3
Торрент: Зарегистрирован [2018-07-15 11:17] · скачан: 137 раз
Статус: √ проверено
Размер: 3.7 GB
Как cкачать? Как скачать Нерожденный через торрент | UTorrent

28-11-2019 20:33  


Отключить вcю реклaмy на сайте, в т.ч. и в плеере онлайн просмотра!

15-07-2018 11:35 Нерожденный Скачать торрент  

Крутой фильм...Много пугающих моментов



19-07-2018 08:54 Нерожденный Скачать торрент  

Умеют же делать постеры)))



23-07-2018 18:12 Нерожденный Скачать торрент  

Vitaliy19751975 писал(а):

Умеют же делать постеры)))

поддерживаю



20-03-2019 15:02 Нерожденный Скачать торрент  

девчонка хороша конечно.поддерживаю вас.



    Дорогой пользователь! Огромная просьба, поблагодарите релизера, оцените раздачу и оставьте свои комментарий, если Вы скачали Нерожденный через торрент бесплатно!!
    Комментировать посты могут только пользователи прошедшие не сложную регистрацию
    Показать сообщения:    


    Нерожденный через торрент
    Скачать бесплатно Нерожденный
    Нерожденный скачать торрент
    Нерожденный смотреть онлайн
    Cкачать фильм Нерожденный бесплатно
    Нерожденный скачать торрент в хорошем качестве
    Нерожденный смотреть онлайн бесплатно в хорошем качестве
    Вы не можете начинать темы
    Вы не можете отвечать на сообщения
    Вы не можете редактировать свои сообщения
    Вы не можете удалять свои сообщения
    Вы не можете голосовать в опросах
    Вы не можете прикреплять файлы к сообщениям
    Вы можете скачивать файлы
    Нерожденный / The Unborn [2009 г., ужасы, триллер, драма, детектив, BDRip 1080p, HEVC , Дубляж] [Unrated Edition] смотреть онлайн, скачать торрент picoco.icu