новый адрес
Ссылка на приватное зеркало всего за 1$. Внимание количество ограничено!!!

iTunes

1+1

iTunes

мы

WEB-DL

1

iTunes

Чернобыль

iTunes

Ральф против интернета

Лицензия

ПШазам

Лицензия

Оно 2

Лицензия

30
pack

Вам бонус

ВАЖНО

!!Акция!!

Alien_RageХит недели

RePack

Resident Evil 21

ИГРА 18+

pack

RePack

jed

!!Акция!!

Alien_Rage

RePack

fifa19

RePack

Assassins Creed: Odyssey

RePack

NEED FOR SPEED™ PAYBACK

3 сезон

9 сезон

Бесстыжие 9 сезон

Все сериалы

все сериалы на PB.wtf

RePack

FAR CRY 5
Ребята, катастрофически не хватает 1900р. для оплаты серверов за Октябрь (всвязи с блокировками трафик упал в 3 раза), 1-2р., выручайте.
  

Фокстрот / Foxtrot (Самуэль Маоз) [2018, драма, WEB-DLRip-AVC] MVO [iTunes] pb.wtf

Фокстрот через торрент pb.wtf

Размер: 1.46 GB | Добавлен: 1 год 4 мес. назад | Торрент скачан:236 раз
Скачать  

15-07-2018 14:06 Фокстрот Скачать торрент  

Фокстрот / Foxtrot
Год выпуска: 2018
Страна: Израиль, Швейцария, Германия, Франция
Жанр: драма
Продолжительность: 01:52:36
Перевод: Профессиональный многоголосый | iTunes
Субтитры: Русские, иврит

Режиссер: Самуэль Маоз

rating

В ролях:

Лиор Ашкенази, Сара Адлер, Йонатан Ширай, Шира Хаас, Декель Адин, Йехуда Альмагор, Шауль Амир, Гефен Баркай, Рами Бузагло

Описание:

На пороге фешенебельной квартиры Михаэля и Дафны появляется военный эскорт с трагическим известием - их сын погиб, исполняя свой воинский долг. Супруги опустошены ужасной вестью. Михаэль пытается совладать с приступами ярости, боли, отчаяния и дурноты, жена находится под воздействием снотворного. А в это время на отдаленном КПП юные солдаты борются со скукой армейской жизни и переживают редкие мгновения смертельной опасности.

Качество: WEB-DLRip-AVC
Формат: MKV

Видео: 1024x430 (2.40:1), 25,000 fps, x264 ~1 279 kbps avg, 0.121 bit/pixel
Аудио#1: 48 kHz, AC3 Dolby Digital, 2 (L,R) ch, ~192.00 kbps avg | RUS (iTunes)
Аудио#2: 48 kHz, AC3 Dolby Digital, 3/2 (L,C,R,l,r) + LFE ch, ~384.00 kbps avg | Hebrew (Original)
скриншот  скриншот  скриншот  скриншот  

Общее
Уникальный идентификатор : 182104247156721890893263681807990461364 (0x890000941B352979A14B289F841513B4)
Полное имя : F:\OlLanDGroup\Foxtrot.2017.WEB-DLRip(AVC).OlLanDGroup.mkv
Формат : Matroska
Версия формата : Version 4 / Version 2
Размер файла : 1,46 Гбайт
Продолжительность : 1 ч. 52 м.
Общий поток : 1857 Кбит/сек
Название фильма : Foxtrot.2017 #TorpedoUK#
Дата кодирования : UTC 2018-07-15 11:02:55
Программа кодирования : mkvmerge v8.3.0 ('Over the Horizon') 64bit
Библиотека кодирования : libebml v1.3.1 + libmatroska v1.4.2

Видео
Идентификатор : 1
Формат : AVC
Формат/Информация : Advanced Video Codec
Профиль формата : High@L4.1
Параметр CABAC формата : Да
Параметр ReFrames формата : 10 кадров
Идентификатор кодека : V_MPEG4/ISO/AVC
Продолжительность : 1 ч. 52 м.
Битрейт : 1279 Кбит/сек
Ширина : 1024 пикселя
Высота : 430 пикселей
Соотношение сторон : 2,40:1
Режим частоты кадров : Постоянный
Частота кадров : 24,000 кадра/сек
Цветовое пространство : YUV
Субдискретизация насыщенности : 4:2:0
Битовая глубина : 8 бит
Тип развёртки : Прогрессивная
Бит/(Пиксели*Кадры) : 0.121
Размер потока : 1,01 Гбайт (69%)
Библиотека кодирования : x264 core 146 r2538 121396c
Настройки программы : cabac=1 / ref=10 / deblock=1:-3:-3 / analyse=0x3:0x113 / me=umh / subme=11 / psy=1 / psy_rd=0.99:0.05 / mixed_ref=1 / me_range=48 / chroma_me=1 / trellis=2 / 8x8dct=1 / cqm=0 / deadzone=21,11 / fast_pskip=1 / chroma_qp_offset=-3 / threads=6 / lookahead_threads=1 / sliced_threads=0 / nr=0 / decimate=1 / interlaced=0 / bluray_compat=0 / constrained_intra=0 / bframes=10 / b_pyramid=2 / b_adapt=2 / b_bias=0 / direct=3 / weightb=1 / open_gop=0 / weightp=2 / keyint=240 / keyint_min=24 / scenecut=40 / intra_refresh=0 / rc_lookahead=40 / rc=2pass / mbtree=1 / bitrate=1279 / ratetol=1.0 / qcomp=0.60 / qpmin=0 / qpmax=69 / qpstep=4 / cplxblur=20.0 / qblur=0.5 / vbv_maxrate=50000 / vbv_bufsize=62500 / nal_hrd=none / filler=0 / ip_ratio=1.40 / aq=1:1.00
Default : Да
Forced : Нет

Аудио #1
Идентификатор : 2
Формат : AC-3
Формат/Информация : Audio Coding 3
Расширение режима : CM (complete main)
Параметр Endianness формата : Big
Идентификатор кодека : A_AC3
Продолжительность : 1 ч. 52 м.
Вид битрейта : Постоянный
Битрейт : 192 Кбит/сек
Каналы : 2 канала
Расположение каналов : Front: L R
Частота : 48,0 КГц
Частота кадров : 31,250 кадров/сек (1536 spf)
Битовая глубина : 16 бит
Метод сжатия : С потерями
Размер потока : 155 Мбайт (10%)
Заголовок : MVO [iTunes]
Язык : Russian
Default : Да
Forced : Нет

Аудио #2
Идентификатор : 3
Формат : AC-3
Формат/Информация : Audio Coding 3
Расширение режима : CM (complete main)
Параметр Endianness формата : Big
Идентификатор кодека : A_AC3
Продолжительность : 1 ч. 52 м.
Вид битрейта : Постоянный
Битрейт : 384 Кбит/сек
Каналы : 6 каналов
Расположение каналов : Front: L C R, Side: L R, LFE
Частота : 48,0 КГц
Частота кадров : 31,250 кадров/сек (1536 spf)
Битовая глубина : 16 бит
Метод сжатия : С потерями
Размер потока : 309 Мбайт (21%)
Заголовок : Original
Язык : Hebrew
Default : Нет
Forced : Нет

Текст #1
Идентификатор : 4
Формат : UTF-8
Идентификатор кодека : S_TEXT/UTF8
Идентификатор кодека/Информация : UTF-8 Plain Text
Продолжительность : 1 ч. 40 м.
Битрейт : 56 бит/сек
Count of elements : 679
Размер потока : 41,6 Кбайт (0%)
Заголовок : Full
Язык : Russian
Default : Нет
Forced : Нет

Текст #2
Идентификатор : 5
Формат : UTF-8
Идентификатор кодека : S_TEXT/UTF8
Идентификатор кодека/Информация : UTF-8 Plain Text
Продолжительность : 1 ч. 40 м.
Битрейт : 42 бит/сек
Count of elements : 673
Размер потока : 31,2 Кбайт (0%)
Заголовок : Full
Язык : Hebrew
Default : Нет
Forced : Нет

pb.wtf



Скачать Фокстрот через торрент https://img11.lostpic.net/2018/07/07/b8c2b346633b1931b6113fdd88b53049.jpg Скачать фильм Фокстрот через торрент бесплантно в хорошем качестве Описание: На пороге фешенебельной квартиры Михаэля и Дафны появляется военный эскорт с трагическим известием - их сын погиб, исполняя свой ... 7.5 10 4
Торрент: Зарегистрирован [2018-07-15 14:06] · скачан: 236 раз
Статус: √ проверено
Размер: 1.46 GB
Как cкачать? Как скачать Фокстрот через торрент | qTorrent

% Раздел Тема Автор DL S | L
T Фильмы [HD 720p, 1080p] (Хороший звук DUB, MVO) [ 12.04 GB ] Фокстрот / Foxtrot [2017 BDRip 1080p by msltel] MVO VO msltel Скачать
1 | 0
T Фильмы [HD 720p, 1080p] (Хороший звук DUB, MVO) [ 3.93 GB ] Фокстрот / Foxtrot [2017 BDRip 720p by msltel] MVO VO msltel Скачать
1 | 0
Фильмы 2017 [DVDrip, WEB-DLRip, HDrip] (DUB, MVO) [ 1.46 GB ] Фокстрот / Foxtrot [2017 BDRip] MVO bober100 Скачать
1 | 0
T Фильмы (WEB-DL 720p, 1080p) [ 4 GB ] Фокстрот / Foxtrot [2018 WEB-DL 1080p] MVO bober100 Скачать
1 | 0

28-11-2019 20:33  

Отключить всю рекламу на сайте

05-08-2018 10:50 Фокстрот Скачать торрент  

Перевода же нетуpb.wtf



05-08-2018 10:51 Фокстрот Скачать торрент  

Только суб титрыpb.wtf



    Дорогой пользователь! Огромная просьба, поблагодарите релизера, оцените раздачу и оставьте свои комментарий, если Вы скачали Фокстрот через торрент бесплатно! Внесите свою лепту в развитие PiratBit!
    Комментировать посты могут только пользователи прошедшие не сложную регистрацию
    Показать сообщения:    

    Фокстрот через торрент
    Скачать бесплатно Фокстрот
    Фокстрот скачать торрент
    Фокстрот смотреть онлайн
    Cкачать фильм Фокстрот бесплатно
    Фокстрот скачать торрент в хорошем качестве
    Фокстрот смотреть онлайн бесплатно в хорошем качестве


    Вы не можете начинать темы
    Вы не можете отвечать на сообщения
    Вы не можете редактировать свои сообщения
    Вы не можете удалять свои сообщения
    Вы не можете голосовать в опросах
    Вы не можете прикреплять файлы к сообщениям
    Вы можете скачивать файлы