Ссылка на приватное зеркало нашего сайта всего за 1$. Внимание количество ограничено!!!

2 сезон

iTunes

1 сезон

1

2 сезон

2 сезон

iTunes

1 сезон

RePack

30

Ultimate

ВАЖНО

ИГРА 18+

pack

RePack

MK11
pack

Забери бонус

RePack

jed

!!Акция!!

Alien_Rage

RePack

fifa19

RePack

Assassins Creed: Odyssey

RePack

NEED FOR SPEED™ PAYBACK

4 сезон

9 сезон

Бесстыжие 9 сезон

Все сериалы

все сериалы на PB.wtf

RePack

FAR CRY 5
  

По болезни / Sick Note / Сезон: 1 / Серии: 1-6 из 6 (Мэтт Липси) [2017, комедия, HDTVRip 1080p] MVO [NewStudio] pb.wtf

По болезни через торрент pb.wtf

Размер: 8.67 GB | Добавлен: 2 года 4 мес. назад | Торрент скачан:23 раза
Скачать  

15-07-2018 20:21 По болезни Скачать торрент  

По болезни / Sick Note
Информация о фильме:

Название: По болезни
Оригинальное название: Sick Note
Год выпуска: 2017 (1 сезон)
Страна: Великобритания / King Bert
Жанр: комедия
Продолжительность: ~ 00:22:00 серия
Перевод: Профессиональный многоголосый |
Субтитры: Русские
Примечание: Присутствует реклама!

Режиссер: Мэтт Липси

rating

В ролях:

Руперт Гринт, Ник Фрост, Пиппа Беннетт-Уорнер, Марама Корлетт, Линдси Лохан, Карл Теобалд, Белинда Стюарт-Уилсон, Дон Джонсон, Камилла Бипут, Майлз Ричардсон и др.

Описание:

Сюжет сериала завертится вокруг Дэниэля Гласса (Руперт Гринт) - молодого человека с патологической склонностью ко лжи. Дэниел Глэсс не очень удачлив: у него никак не складывается личная жизнь, да и начальник, Кенни Уэст, постоянно к нему придирается. Поэтому парню часто приходится врать и изворачиваться. Когда Дэниэлю диагностируют рак пищевода, все вокруг начинают проявлять участие и заботу, пытаясь облегчить его страдания. Но когда выясняется, что диагноз был ложным, Дэниэль не спешит отказываться от своего статуса "умирающего". А чтобы поддерживать эту ложь он привлекает к сотрудничеству своего онколога доктора Гленниса (Ник Фрост) - самого некомпетентного врача в мире.

Информация о файле:

Качество: HDTVRip 1080p
Формат: MKV
Видео кодек: H.264
Аудио кодек: AC3

Видео: ~ 7000 kbps, 1916x1080 (16:9), 23.976 fp
Аудио#1: RUS: AC3, 48 KHz, 6 ch, 384 kbps
Аудио#2: ENG: AC3, 48 KHz, 6 ch, 384 kbps


Перевод: Юрий Башенкер

скриншот  скриншот  скриншот  скриншот  

Общее
Уникальный идентификатор : 221669340625771244863928202176712318952 (0xA6C3F64B4AEB338AB25EA49D044A9FE8)
Полное имя : D:\Sick.Note.s01.HDTV.1080p.NewStudio.TV\Sick.Note.s01e01.HDTV.1080p.NewStudio.TV.mkv
Формат : Matroska
Версия формата : Version 4 / Version 2
Размер файла : 2,35 Гбайт
Продолжительность : 43 м. 59 с.
Общий поток : 7649 Кбит/сек
Дата кодирования : UTC 2017-11-30 22:06:33
Программа кодирования : mkvmerge v8.2.0 ('World of Adventure') 32bit
Библиотека кодирования : libebml v1.3.1 + libmatroska v1.4.2

Видео
Идентификатор : 1
Формат : AVC
Формат/Информация : Advanced Video Codec
Профиль формата : High@L4.1
Параметр CABAC формата : Да
Параметр RefFrames формата : 4 кадра
Идентификатор кодека : V_MPEG4/ISO/AVC
Продолжительность : 43 м. 59 с.
Битрейт : 6878 Кбит/сек
Ширина : 1916 пикселей
Высота : 1080 пикселей
Соотношение сторон : 16:9
Режим частоты кадров : Постоянный
Частота кадров : 25,000 кадров/сек
Цветовое пространство : YUV
Субдискретизация насыщенности : 4:2:0
Битовая глубина : 8 бит
Тип развёртки : Прогрессивная
Бит/(Пиксели*Кадры) : 0.133
Размер потока : 2,11 Гбайт (90%)
Библиотека кодирования : x264 core 152 r2851 ba24899
Настройки программы : cabac=1 / ref=4 / deblock=1:-2:-2 / analyse=0x3:0x113 / me=hex / subme=8 / psy=1 / psy_rd=1.00:0.00 / mixed_ref=1 / me_range=16 / chroma_me=1 / trellis=2 / 8x8dct=1 / cqm=0 / deadzone=21,11 / fast_pskip=1 / chroma_qp_offset=-2 / threads=12 / lookahead_threads=2 / sliced_threads=0 / nr=0 / decimate=1 / interlaced=0 / bluray_compat=0 / constrained_intra=0 / bframes=3 / b_pyramid=2 / b_adapt=1 / b_bias=0 / direct=3 / weightb=1 / open_gop=0 / weightp=2 / keyint=250 / keyint_min=25 / scenecut=40 / intra_refresh=0 / rc_lookahead=50 / rc=crf / mbtree=1 / crf=18.0 / qcomp=0.60 / qpmin=0 / qpmax=69 / qpstep=4 / ip_ratio=1.40 / aq=1:1.00
Default : Да
Forced : Нет
Цветовой диапазон : Limited
Коэффициенты матрицы : BT.709

Аудио #1
Идентификатор : 2
Формат : AC-3
Формат/Информация : Audio Coding 3
Расширение режима : CM (complete main)
Параметр Endianness формата : Big
Идентификатор кодека : A_AC3
Продолжительность : 43 м. 59 с.
Вид битрейта : Постоянный
Битрейт : 384 Кбит/сек
Каналы : 6 каналов
Расположение каналов : Front: L C R, Side: L R, LFE
Частота : 48,0 КГц
Частота кадров : 31,250 кадров/сек (1536 spf)
Метод сжатия : С потерями
Размер потока : 121 Мбайт (5%)
Заголовок : NewStudio.TV
Язык : Russian
Default : Да
Forced : Нет

Аудио #2
Идентификатор : 3
Формат : AC-3
Формат/Информация : Audio Coding 3
Расширение режима : CM (complete main)
Параметр Endianness формата : Big
Идентификатор кодека : A_AC3
Продолжительность : 43 м. 59 с.
Вид битрейта : Постоянный
Битрейт : 384 Кбит/сек
Каналы : 6 каналов
Расположение каналов : Front: L C R, Side: L R, LFE
Частота : 48,0 КГц
Частота кадров : 31,250 кадров/сек (1536 spf)
Метод сжатия : С потерями
Размер потока : 121 Мбайт (5%)
Язык : English
Default : Нет
Forced : Нет

Текст
Идентификатор : 4
Формат : ASS
Идентификатор кодека : S_TEXT/ASS
Идентификатор кодека/Информация : Advanced Sub Station Alpha
Продолжительность : 43 м. 9 с.
Битрейт : 3 бит/сек
ElementCount : 17
Метод сжатия : Без потерь
Размер потока : 1,06 Кбайт (0%)
Заголовок : Forced
Язык : Russian
Default : Да
Forced : Да

pb.wtf



Скачать По болезни через торрент http://i97.fastpic.ru/big/2017/1114/3e/95de417700903f287c2526fd92895d3e.png Скачать фильм По болезни через торрент бесплантно в хорошем качестве Описание: Сюжет сериала завертится вокруг Дэниэля Гласса (Руперт Гринт) - молодого человека с патологической склонностью ко лжи. Дэниел ... 10 10 3
Info! Серебряная раздача, засчитывается только 50% скачанного.
Торрент: Зарегистрирован [2018-07-15 20:21] · скачан: 23 раз
Статус: √ проверено
Размер: 8.67 GB
Как cкачать? Как скачать По болезни через торрент | qTorrent

% Раздел Тема Автор DL S | L
Зарубежные сериалы [ 1.88 GB ] По болезни / Sick Note / Сезон: 1 / Серии: 1-6 из 6 [2017 HDTVRip] MVO [Good People] bober100 Скачать
1 | 0
Зарубежные сериалы [ 8.67 GB ] По болезни / Sick Note / Сезон: 1 / Серии: 1-6 из 6 [2017 HDTVRip 1080p] MVO [Good People] bober100 Скачать
1 | 0
Зарубежные сериалы [ 4.18 GB ] По болезни / Sick Note / Сезон: 1 / Серии: 1-6 из 6 [2017 HDTVRip 720p] MVO [NewStudio] bober100 Скачать
1 | 0


Последний раз редактировалось: bober100 (2018-07-16 05:33), всего редактировалось 2 раз(а)

28-11-2019 20:33  

Отключить всю рекламу на сайте

15-07-2018 21:24 По болезни Скачать торрент  

Рон Уизли что ты забыл тут -_-pb.wtf



    Дорогой пользователь! Огромная просьба, поблагодарите релизера, оцените раздачу и оставьте свои комментарий, если Вы скачали По болезни через торрент бесплатно! Внесите свою лепту в развитие PiratBit!
    Комментировать посты могут только пользователи прошедшие не сложную регистрацию
    Показать сообщения:    

    По болезни через торрент
    Скачать бесплатно По болезни
    По болезни скачать торрент
    По болезни смотреть онлайн
    Cкачать фильм По болезни бесплатно
    По болезни скачать торрент в хорошем качестве
    По болезни смотреть онлайн бесплатно в хорошем качестве


    Вы не можете начинать темы
    Вы не можете отвечать на сообщения
    Вы не можете редактировать свои сообщения
    Вы не можете удалять свои сообщения
    Вы не можете голосовать в опросах
    Вы не можете прикреплять файлы к сообщениям
    Вы можете скачивать файлы