новый адрес
Мега распродажа FORZA HORIZON 4 ULTIMATE+ВСЕ DLC+ОНЛАЙН всего за 499р. 349 руб. (супер цена). Внимание количество ограничено!!!

iTunes

1+1

iTunes

мы

iTunes

1

iTunes

Чернобыль

iTunes

Ральф против интернета

Лицензия

ПШазам

Лицензия

Игра престолов

Лицензия

30
pack

ВАЖНО

!!Акция!!

Alien_RageХит недели

RePack

Resident Evil 21

ИГРА 18+

pack

RePack

Metro:Exodus

!!Акция!!

Alien_Rage

RePack

fifa19

RePack

Assassins Creed: Odyssey

RePack

NEED FOR SPEED™ PAYBACK

3 сезон

9 сезон

Бесстыжие 9 сезон

Все сериалы

все сериалы на PB.wtf

RePack

FAR CRY 5
Ребята, катастрофически не хватает 1900р. для оплаты серверов за Октябрь (всвязи с блокировками трафик упал в 3 раза), 1-2р., выручайте.
  

Купи меня (Вадим Перельман) [2018, Драма, мелодрама, WEB-DLRip-AVC] [iTunes] - ExKinoRay pb.wtf

Купи меня через торрент pb.wtf

Раздают: 2 [ 0 KB/s ]
Размер: 1.52 GB | Добавлен: 1 год 4 мес. назад | Торрент скачан:903 раза
Скачать  

16-07-2018 01:50 Купи меня Скачать торрент  

Информация о фильме
Оригинальное название: Купи меня
Год выпуска: 2018
Жанр: Драма, мелодрама
Режиссер: Вадим Перельман
В ролях: Анна Адамович, Юлия Хлынина, Светлана Устинова, Александр Цёма, Сабина Ахмедова, Максим Аль-Намес

Описание: Три девушки — три истории о том, как изменить свою жизнь и чем предстоит пожертвовать, чтобы стать «счастливыми». Порше, олигархи, секс, любовь и мечты о красивой жизни. Смогут ли героини добиться успеха, или они сломаются, так и не дойдя до цели?.

rating

Формат: MKV
Качество: WEB-DLRip-AVC
Видео: MPEG-4 AVC, 1024x428 (2.40:1), 24.000 fps, ~1650 kbps avg, 0.214 bit/pixel
Аудио: 48 kHz, AC3 Dolby Digital, 3/2 (L,C,R,l,r) + LFE ch, ~384 kbps
Перевод: Не требуется (оригинал) | iTunes
General
Unique ID : 197074879038332086435227660640292745435 (0x94433DB7978D5E6CBF7710A09EA8B0DB)
Complete name : D:\Kypi.menia.2O18.O.WEB-DLRip.AVC.ExKinoRay.mkv
Format : Matroska
Format version : Version 2
File size : 1.52 GiB
Duration : 1 h 47 min
Overall bit rate : 2 035 kb/s
Movie name : Купи меня (2018) from ExKinoRay
Encoded date : UTC 2018-07-16 00:42:33
Writing application : mkvmerge v5.6.0 ('Kenya Kane') built on May 27 2012 16:44:04
Writing library : libebml v1.2.3 + libmatroska v1.3.0

Video
ID : 1
Format : AVC
Format/Info : Advanced Video Codec
Format profile : High@L4.1
Format settings, CABAC : Yes
Format settings, ReFrames : 11 frames
Codec ID : V_MPEG4/ISO/AVC
Duration : 1 h 47 min
Bit rate : 1 650 kb/s
Width : 1 024 pixels
Height : 428 pixels
Display aspect ratio : 2.40:1
Frame rate mode : Constant
Frame rate : 24.000 FPS
Color space : YUV
Chroma subsampling : 4:2:0
Bit depth : 8 bits
Scan type : Progressive
Bits/(Pixel*Frame) : 0.157
Stream size : 1.21 GiB (79%)
Title : Enigma
Writing library : x264 core 152 r2851 ba24899
Encoding settings : cabac=1 / ref=11 / deblock=1:-2:-2 / analyse=0x3:0x113 / me=umh / subme=10 / psy=1 / psy_rd=1.05:0.10 / mixed_ref=1 / me_range=32 / chroma_me=1 / trellis=2 / 8x8dct=1 / cqm=0 / deadzone=21,11 / fast_pskip=0 / chroma_qp_offset=-3 / threads=12 / lookahead_threads=2 / sliced_threads=0 / nr=0 / decimate=0 / interlaced=0 / bluray_compat=0 / constrained_intra=0 / bframes=9 / b_pyramid=2 / b_adapt=2 / b_bias=0 / direct=3 / weightb=1 / open_gop=0 / weightp=2 / keyint=240 / keyint_min=24 / scenecut=40 / intra_refresh=0 / rc_lookahead=40 / rc=2pass / mbtree=0 / bitrate=1650 / ratetol=1.0 / qcomp=0.60 / qpmin=0 / qpmax=51 / qpstep=4 / cplxblur=20.0 / qblur=0.5 / vbv_maxrate=50000 / vbv_bufsize=62500 / nal_hrd=none / filler=0 / ip_ratio=1.30 / pb_ratio=1.20 / aq=3:0.90
Default : Yes
Forced : No
Color range : Limited
Color primaries : BT.709
Transfer characteristics : BT.709
Matrix coefficients : BT.709

Audio
ID : 2
Format : AC-3
Format/Info : Audio Coding 3
Mode extension : CM (complete main)
Format settings, Endianness : Big
Codec ID : A_AC3
Duration : 1 h 47 min
Bit rate mode : Constant
Bit rate : 384 kb/s
Channel(s) : 6 channels
Channel positions : Front: L C R, Side: L R, LFE
Sampling rate : 48.0 kHz
Frame rate : 31.250 FPS (1536 spf)
Compression mode : Lossy
Stream size : 294 MiB (19%)
Language : Russian
Default : Yes
Forced : No

Menu
00:00:00.000 : en:Глава 1
00:07:17.000 : en:Глава 2
00:13:34.625 : en:Глава 3
00:18:58.625 : en:Глава 4
00:24:02.875 : en:Глава 5
00:29:13.958 : en:Глава 6
00:35:52.624 : en:Глава 7
00:42:36.999 : en:Глава 8
00:49:41.707 : en:Глава 9
00:56:26.123 : en:Глава 10
01:01:47.373 : en:Глава 11
01:10:19.289 : en:Глава 12
01:17:06.622 : en:Глава 13
01:22:10.622 : en:Глава 14
01:26:50.747 : en:Глава 15
01:32:52.872 : en:Глава 16
01:39:45.205 : en:Глава 17
Релиз от:

Автор релиза: pb.wtf



Скачать Купи меня через торрент http://i99.fastpic.ru/big/2018/0303/51/61b12a0b81489bb7b0b8a8dfa15c3451.jpg Скачать фильм Купи меня через торрент бесплантно в хорошем качестве Описание: Три девушки — три истории о том, как изменить свою жизнь и чем предстоит пожертвовать, чтобы стать «счастливыми». Порше, ... 9.1 10 21
Info! Золотая раздача, скачанное не засчитывается.
Торрент: Зарегистрирован [2018-07-16 01:50] · скачан: 903 раз
Статус: √ проверено
Размер: 1.52 GB
Как cкачать? Как скачать Купи меня через торрент | qTorrent


>> Регистрируемся здесь <<






Отзывы и комментарии о схеме читаем и пишем здесь: ---> Отзывы и комментарии о схеме

Новые благодарочки в телеграм довольных пользователей:
скриншот   скриншот   скриншот   скриншот   скриншот

16-07-2018 12:37 Купи меня Скачать торрент  

Хороший фильмpb.wtf



    Дорогой пользователь! Огромная просьба, поблагодарите релизера, оцените раздачу и оставьте свои комментарий, если Вы скачали Купи меня через торрент бесплатно! Внесите свою лепту в развитие PiratBit!
    Комментировать посты могут только пользователи прошедшие не сложную регистрацию
    Показать сообщения:    

    Купи меня через торрент
    Скачать бесплатно Купи меня
    Купи меня скачать торрент
    Купи меня смотреть онлайн
    Cкачать фильм Купи меня бесплатно
    Купи меня скачать торрент в хорошем качестве
    Купи меня смотреть онлайн бесплатно в хорошем качестве


    Вы не можете начинать темы
    Вы не можете отвечать на сообщения
    Вы не можете редактировать свои сообщения
    Вы не можете удалять свои сообщения
    Вы не можете голосовать в опросах
    Вы не можете прикреплять файлы к сообщениям
    Вы можете скачивать файлы