Ссылка на приватное зеркало нашего сайта всего за 1$. Внимание количество ограничено!!!

2 сезон

iTunes

1 сезон

1

2 сезон

2 сезон

iTunes

1 сезон

RePack

30

Ultimate

ВАЖНО

ИГРА 18+

pack

RePack

MK11
pack

Забери бонус

RePack

jed

!!Акция!!

Alien_Rage

RePack

fifa19

RePack

Assassins Creed: Odyssey

RePack

NEED FOR SPEED™ PAYBACK

4 сезон

9 сезон

Бесстыжие 9 сезон

Все сериалы

все сериалы на PB.wtf

RePack

FAR CRY 5
  

Страйк / Strike / Сезон: 1 / Серии: 1-7 из 7 (Майкл Кейллор, Кирон Хоукс, Чарльз Старридж) [2017-2018, Триллер, драма, криминал, детектив, WEB-DL 1080p] MVO [SDI Media] pb.wtf

Страйк через торрент pb.wtf

Размер: 26 GB | Добавлен: 2 года 4 мес. назад | Торрент скачан:54 раза
Скачать  

16-07-2018 03:24 Страйк Скачать торрент  

Страйк / Strike
Год выпуска: 2017-2018
Страна: Великобритания
Жанр: Триллер, драма, криминал, детектив
Продолжительность: ~00:58:00
Перевод: Профессиональный (многоголосый закадровый) | SDI Media по заказу Amedia
Субтитры: Русские (Amedia), английские

Режиссёр: Майкл Кейллор, Кирон Хоукс, Чарльз Старридж

В ролях:

Том Бёрк, Холлидей Грейнджер, Керр Логан, Киллиан Скотт, Йен Кейр Аттард, Кэйтлин Иннес Эдвардс, Лео Билл, Бен Кромптон, Аделл Леонс

Описание:

«Страйк» — сериал на основе детективных романов, написанных Дж.К. Роулинг под псевдонимом Роберт Гэлбрейт. Корморан Страйк — ветеран войны, ставший частным детективом — работает в небольшом офисе на Датской улице в Лондоне. В расследованиях ему помогает секретарь Робин Эллакотт. Несмотря на физические и душевные травмы, уникальная проницательность и опыт Страйка позволяют ему раскрыть самые запутанные дела, которые полицию ставят в тупик.

rating

Качество: WEB-DL 1080p
Формат: MKV

Видео: AVC, 1920x1080 (16:9), 25.000 fps ~8500 kbps
Аудио #1: 48 kHz, AC3, 6 ch., 384 kbps | Rus
Аудио #2: 48 kHz, AC3, 6 ch., 348 kbps | Eng

Реклама: Отсутствует
Khoren2013

за 5.1 звук спасибо itunestv

Перевод: Профессиональный многоголосый (SDI Media по заказу Amedia)

русские субтитры - Amedia
01. Зов кукушки : Часть 1 / The Cuckoos Calling : Part 1
02. Зов кукушки : Часть 2 / The Cuckoos Calling : Part 2
03. Зов кукушки : Часть 3 / The Cuckoos Calling : Part 3
04. Шелкопряд : Часть 1 / The Silkworm : Part 1
05. Шелкопряд : Часть 2 / The Silkworm : Part 2
06. На службе зла : Часть 1 / Career of Evil : Part 1
07. На службе зла : Часть 2 / Career of Evil : Part 2
General
Unique ID : 245394209916241697841928379068911896422 (0xB89D34A920DB10D19059F159258AC766)
Complete name : E:\Torrent\Strike.S01.1080p.AMZN.WEB-DL.DD5.1.H.264-SDI\Strike.The.Cuckoos.Calling.S01E01.1080p.AMZN.WEB-DL.DD5.1.H.264-SDI.mkv
Format : Matroska
Format version : Version 4 / Version 2
File size : 3.73 GiB
Duration : 57 min 20 s
Overall bit rate mode : Variable
Overall bit rate : 9 309 kb/s
Encoded date : UTC 2018-06-07 12:15:06
Writing application : mkvmerge v18.0.0 ('Apricity') 64-bit
Writing library : libebml v1.3.5 + libmatroska v1.4.8
Cover : Yes
Attachments : cover.strike.jpg

Video
ID : 1
Format : AVC
Format/Info : Advanced Video Codec
Format profile : High@L4
Format settings : CABAC / 4 Ref Frames
Format settings, CABAC : Yes
Format settings, RefFrames : 4 frames
Codec ID : V_MPEG4/ISO/AVC
Duration : 57 min 20 s
Bit rate mode : Variable
Bit rate : 8 538 kb/s
Maximum bit rate : 15.0 Mb/s
Width : 1 920 pixels
Height : 1 080 pixels
Display aspect ratio : 16:9
Frame rate mode : Constant
Frame rate : 25.000 FPS
Color space : YUV
Chroma subsampling : 4:2:0
Bit depth : 8 bits
Scan type : Progressive
Bits/(Pixel*Frame) : 0.165
Stream size : 3.42 GiB (92%)
Language : English
Default : Yes
Forced : No
Color range : Limited
Color primaries : BT.709
Transfer characteristics : BT.709
Matrix coefficients : BT.709

Audio #1
ID : 2
Format : AC-3
Format/Info : Audio Coding 3
Codec ID : A_AC3
Duration : 57 min 20 s
Bit rate mode : Constant
Bit rate : 384 kb/s
Channel(s) : 6 channels
Channel positions : Front: L C R, Side: L R, LFE
Sampling rate : 48.0 kHz
Frame rate : 31.250 FPS (1536 SPF)
Bit depth : 16 bits
Compression mode : Lossy
Stream size : 157 MiB (4%)
Language : Russian
Service kind : Complete Main
Default : Yes
Forced : No

Audio #2
ID : 3
Format : AC-3
Format/Info : Audio Coding 3
Codec ID : A_AC3
Duration : 57 min 20 s
Bit rate mode : Constant
Bit rate : 384 kb/s
Channel(s) : 6 channels
Channel positions : Front: L C R, Side: L R, LFE
Sampling rate : 48.0 kHz
Frame rate : 31.250 FPS (1536 SPF)
Bit depth : 16 bits
Compression mode : Lossy
Stream size : 157 MiB (4%)
Language : English
Service kind : Complete Main
Default : No
Forced : No

Text #1
ID : 4
Format : UTF-8
Codec ID : S_TEXT/UTF8
Codec ID/Info : UTF-8 Plain Text
Duration : 55 min 14 s
Bit rate : 70 b/s
Count of elements : 643
Stream size : 28.4 KiB (0%)
Language : Russian
Default : No
Forced : No

Text #2
ID : 5
Format : UTF-8
Codec ID : S_TEXT/UTF8
Codec ID/Info : UTF-8 Plain Text
Duration : 56 min 20 s
Bit rate : 49 b/s
Count of elements : 710
Stream size : 20.5 KiB (0%)
Language : English
Default : No
Forced : No
pb.wtf



Скачать Страйк через торрент http://i105.fastpic.ru/big/2018/0608/3d/9ade61173157277e60ada8fb310c493d.jpg Скачать фильм Страйк через торрент бесплантно в хорошем качестве Описание: «Страйк» — сериал на основе детективных романов, написанных Дж.К. Роулинг под псевдонимом Роберт Гэлбрейт. Корморан Страйк — ... 10 10 2
Info! Золотая раздача, скачанное не засчитывается.
Торрент: Зарегистрирован [2018-07-16 03:24] · скачан: 54 раз
Статус: √ проверено
Размер: 26 GB
Как cкачать? Как скачать Страйк через торрент | qTorrent

% Раздел Тема Автор DL S | L
Зарубежные сериалы [ 7.21 GB ] Страйк / Strike / Сезон: 1 / Серии 1-7 из 7 [2017-2018 WEBRip-AVC] [MVO] killermax2013 Скачать
1 | 0
Зарубежные сериалы [ 27.59 GB ] Страйк / Strike / Сезон: 1 / Серии 1-7 из 7 [2017-2018 WEB-DL 1080p] [MVO] killermax2013 Скачать
1 | 0

28-11-2019 20:33  

Отключить всю рекламу на сайте

    Дорогой пользователь! Огромная просьба, поблагодарите релизера, оцените раздачу и оставьте свои комментарий, если Вы скачали Страйк через торрент бесплатно! Внесите свою лепту в развитие PiratBit!
    Комментировать посты могут только пользователи прошедшие не сложную регистрацию
    Показать сообщения:    

    Страйк через торрент
    Скачать бесплатно Страйк
    Страйк скачать торрент
    Страйк смотреть онлайн
    Cкачать фильм Страйк бесплатно
    Страйк скачать торрент в хорошем качестве
    Страйк смотреть онлайн бесплатно в хорошем качестве


    Вы не можете начинать темы
    Вы не можете отвечать на сообщения
    Вы не можете редактировать свои сообщения
    Вы не можете удалять свои сообщения
    Вы не можете голосовать в опросах
    Вы не можете прикреплять файлы к сообщениям
    Вы можете скачивать файлы