новый адрес
Мега распродажа FORZA HORIZON 4 ULTIMATE+ВСЕ DLC+ОНЛАЙН всего за 499р. 349 руб. (супер цена). Внимание количество ограничено!!!

iTunes

1+1

iTunes

мы

iTunes

1

iTunes

Чернобыль

iTunes

Ральф против интернета

Лицензия

ПШазам

Лицензия

Игра престолов

Лицензия

30
pack

ВАЖНО

!!Акция!!

Alien_RageХит недели

RePack

Resident Evil 21

ИГРА 18+

pack

RePack

Metro:Exodus

!!Акция!!

Alien_Rage

RePack

fifa19

RePack

Assassins Creed: Odyssey

RePack

NEED FOR SPEED™ PAYBACK

3 сезон

9 сезон

Бесстыжие 9 сезон

Все сериалы

все сериалы на PB.wtf

RePack

FAR CRY 5
Ребята, катастрофически не хватает 1900р. для оплаты серверов за Октябрь (всвязи с блокировками трафик упал в 3 раза), 1-2р., выручайте.
  

Не игра (Денис Скворцов) [2018, драма, WEB-DLRip-AVC] - ExKinoRay pb.wtf

Не игра через торрент pb.wtf

Раздают: 1 [ 0 KB/s ]
Размер: 1.34 GB | Добавлен: 1 год 4 мес. назад | Торрент скачан:427 раз
Скачать  

16-07-2018 04:52 Не игра Скачать торрент  

Информация о фильме
Оригинальное название: Не игра
Год выпуска: 2018
Жанр: Драма
Режиссер: Денис Скворцов
В ролях: Павел Павлють, Никита Лубенько, Борис Шумилин, Денис Барановский

Описание: Сюжет фильма рассказывает о молодом амбициозном программисте Алексее Кузьменкове, который, несмотря на отсрочку, идет в армию, чтобы лучше узнать о военных порядках и устройстве боевой техники для создания компьютерной игры. Однако, проходя службу, Алексей делает полную «перезагрузку» всей своей жизни. Он расстается с иллюзиями в отношении легких побед и быстрых достижений, преодолевает собственные слабости и соблазны, встречает надежных и верных друзей, становится настоящим мужчиной и открывает новые перспективы собственной жизни.



Выпущено: Беларусь
Студия: Беларусьфильм
Продолжительность: 01:35:13
Перевод: Не требуется

Формат: MKV
Качество: WEB-DLRip-AVC
Видео: MPEG-4 AVC, 1024x456 (2.25:1), 25.000 fps, ~1820 kbps avg, 0.156 bit/pixel
Аудио: 48 kHz, AC3 Dolby Digital, 2/0 ch, ~192 kbps
General
Unique ID : 228267227322566317777860068624088701612 (0xABBAAB393F5D9F439FE33F8995E81AAC)
Complete name : D:\Ne.igra.2018.AVC.ExKinoRay.mkv
Format : Matroska
Format version : Version 2
File size : 1.34 GiB
Duration : 1 h 35 min
Overall bit rate : 2 012 kb/s
Movie name : Не игра (2018) from ExKinoRay
Encoded date : UTC 2018-07-16 04:06:54
Writing application : mkvmerge v5.6.0 ('Kenya Kane') built on May 27 2012 16:44:04
Writing library : libebml v1.2.3 + libmatroska v1.3.0

Video
ID : 1
Format : AVC
Format/Info : Advanced Video Codec
Format profile : High@L4.1
Format settings, CABAC : Yes
Format settings, ReFrames : 10 frames
Codec ID : V_MPEG4/ISO/AVC
Duration : 1 h 35 min
Bit rate : 1 820 kb/s
Width : 1 024 pixels
Height : 456 pixels
Display aspect ratio : 2.25:1
Frame rate mode : Constant
Frame rate : 25.000 FPS
Color space : YUV
Chroma subsampling : 4:2:0
Bit depth : 8 bits
Scan type : Progressive
Bits/(Pixel*Frame) : 0.156
Stream size : 1.18 GiB (88%)
Title : Enigma
Writing library : x264 core 152 r2851 ba24899
Encoding settings : cabac=1 / ref=10 / deblock=1:-2:-2 / analyse=0x3:0x113 / me=umh / subme=10 / psy=1 / psy_rd=1.00:0.05 / mixed_ref=1 / me_range=32 / chroma_me=1 / trellis=2 / 8x8dct=1 / cqm=0 / deadzone=21,11 / fast_pskip=0 / chroma_qp_offset=-3 / threads=12 / lookahead_threads=2 / sliced_threads=0 / nr=0 / decimate=0 / interlaced=0 / bluray_compat=0 / constrained_intra=0 / bframes=9 / b_pyramid=2 / b_adapt=2 / b_bias=0 / direct=3 / weightb=1 / open_gop=0 / weightp=2 / keyint=250 / keyint_min=25 / scenecut=40 / intra_refresh=0 / rc=2pass / mbtree=0 / bitrate=1820 / ratetol=1.0 / qcomp=0.60 / qpmin=0 / qpmax=51 / qpstep=4 / cplxblur=20.0 / qblur=0.5 / ip_ratio=1.30 / pb_ratio=1.20 / aq=1:1.00
Language : English
Default : Yes
Forced : No
Color range : Limited
Color primaries : BT.709
Transfer characteristics : BT.709
Matrix coefficients : BT.709

Audio
ID : 2
Format : AC-3
Format/Info : Audio Coding 3
Mode extension : CM (complete main)
Format settings, Endianness : Big
Codec ID : A_AC3
Duration : 1 h 35 min
Bit rate mode : Constant
Bit rate : 192 kb/s
Channel(s) : 2 channels
Channel positions : Front: L R
Sampling rate : 44.1 kHz
Frame rate : 28.711 FPS (1536 spf)
Compression mode : Lossy
Stream size : 131 MiB (10%)
Language : Russian
Default : Yes
Forced : No
Релиз от:

Автор релиза: pb.wtf



Скачать Не игра через торрент http://i104.fastpic.ru/big/2018/0714/81/6abd573e4b97d96b2b94c1c3ccfb7381.jpg Скачать фильм Не игра через торрент бесплантно в хорошем качестве Описание: Сюжет фильма рассказывает о молодом амбициозном программисте Алексее Кузьменкове, который, несмотря на отсрочку, идет в армию, ... 9.3 10 12
Info! Золотая раздача, скачанное не засчитывается.
Торрент: Зарегистрирован [2018-07-16 04:52] · скачан: 427 раз
Статус: √ проверено
Размер: 1.34 GB
Как cкачать? Как скачать Не игра через торрент | qTorrent

% Раздел Тема Автор DL S | L
Фильмы 2019 [DVDrip, WEB-DLRip, HDrip] (DUB, MVO) [ 1.68 GB ] Игра с огнем / Burn [2019 BDRip-AVC] Dub - ExKinoRay Enigma2010 Скачать
59 | 8
Фильмы 2019 [DVDrip, WEB-DLRip, HDrip] (DUB, MVO) [ 1.56 GB ] Игра с огнем / Burn [2019 WEB-DLRip-AVC] Dub - ExKinoRay Enigma2010 Скачать
80 | 4
Фильмы 2018 [DVDrip, WEB-DLRip, HDrip] (DUB, MVO) [ 1.56 GB ] Незнакомцы: Жестокие игры / The Strangers: Prey at Night [2018 BDRip-AVC] - ExKinoRay Enigma2010 Скачать
1 | 1
Наши фильмы, до 2010 [ 1.97 GB ] Игра [2008 DVDRip-AVC Русский] от ExKinoRay dumbia Скачать
1 | 0


>> Регистрируемся здесь <<






Отзывы и комментарии о схеме читаем и пишем здесь: ---> Отзывы и комментарии о схеме

Новые благодарочки в телеграм довольных пользователей:
скриншот   скриншот   скриншот   скриншот   скриншот

16-07-2018 09:49 Не игра Скачать торрент  

Фильм снят в рамках призывной кампании pb.wtf



16-07-2018 10:22 Не игра Скачать торрент  

Отличная попытка военкомат

  pb.wtf



16-07-2018 15:10 Не игра Скачать торрент  

туфтаpb.wtf



    Дорогой пользователь! Огромная просьба, поблагодарите релизера, оцените раздачу и оставьте свои комментарий, если Вы скачали Не игра через торрент бесплатно! Внесите свою лепту в развитие PiratBit!
    Комментировать посты могут только пользователи прошедшие не сложную регистрацию
    Показать сообщения:    

    Не игра через торрент
    Скачать бесплатно Не игра
    Не игра скачать торрент
    Не игра смотреть онлайн
    Cкачать фильм Не игра бесплатно
    Не игра скачать торрент в хорошем качестве
    Не игра смотреть онлайн бесплатно в хорошем качестве


    Вы не можете начинать темы
    Вы не можете отвечать на сообщения
    Вы не можете редактировать свои сообщения
    Вы не можете удалять свои сообщения
    Вы не можете голосовать в опросах
    Вы не можете прикреплять файлы к сообщениям
    Вы можете скачивать файлы