Ссылка на приватное зеркало нашего сайта всего за 1$. Внимание количество ограничено!!!

2 сезон

iTunes

iTunes

1

iTunes

iTunes

iTunes

WEBRip

iTunes

30
pack

Вам бонус

ВАЖНО

!!Акция!!

Alien_RageХит недели

RePack

Horizon Zero Dawn

ИГРА 18+

pack

RePack

jed

!!Акция!!

Alien_Rage

RePack

fifa19

RePack

Assassins Creed: Odyssey

RePack

NEED FOR SPEED™ PAYBACK

4 сезон

9 сезон

Бесстыжие 9 сезон

Все сериалы

все сериалы на PB.wtf

RePack

FAR CRY 5
  

Страна маленьких людей / Land of the Little People (Янив Берман) [2016 г., Приключения, триллер, драма, WEB-DLRip, Любительский (многоголосый)] pb.wtf

Страна маленьких людей через торрент pb.wtf

Размер: 1.37 GB | Добавлен: 2 года 2 мес. назад | Торрент скачан:87 раз
Скачать  

16-07-2018 04:52 Страна маленьких людей Скачать торрент  

Страна маленьких людей / Land of the Little People
Год выпуска: 2016
Страна: Израиль
Жанр: Приключения, триллер, драма
Продолжительность: 01:23:29
Перевод: Любительский (многоголосый) | Синема УС
Субтитры: Отсутствуют

Режиссер: Янив Берман

rating

В ролях: Mishel Pruzansky, Eytan Sharon, Идо Кестлер, Keren Kats, Shimrit Turner, Shani Yanku, Maor Schwitzer, Amit Hechter, Lior Rochman, Ofer Hayoun

Описание: Четверо детей, живущих в деревне военных офицеров, образуют небольшую банду. Старая заброшенная армейская база, расположенная в окрестных полях, превращается в их лагерь. Началась война, и большинство мужчин ушли воевать. Однажды дети возвращаются в свой лагерь, они обнаруживают двух солдат-дезертиров, которые покинули свои подразделения и используют их лагерь в качестве укрытия. Беспощадная борьба развивается между ними, и солдаты, которые искали убежища от войны за пределами, оказываются в другой войне, которая становится такой же опасной и кровавой.

Качество: WEB-DLRip
Формат: AVI
Видео кодек: XviD
Аудио кодек: AC3
Видео: XviD, 720x304 , 23.9fps, 1951 Kbps
Аудио#1: AC3 , 2 ch , 48 kHz , 384 kbps
Общее
Полное имя : D:Land_of_the_Little_People.2018.P.WEB-DLRip.14OOMB_KOSHARA.avi
Формат : AVI
Формат/Информация : Audio Video Interleave
Размер файла : 1,37 Гбайт
Продолжительность : 1 ч. 23 м.
Общий поток : 2344 Кбит/сек
Программа кодирования : VirtualDubMod 1.5.10.2 (build 2540/release)
Библиотека кодирования : VirtualDubMod build 2540/release

Видео
Идентификатор : 0
Формат : MPEG-4 Visual
Профиль формата : Advanced Simple@L5
Параметр BVOP формата : 2
Параметр QPel формата : Нет
Параметр GMC формата : Без точки перехода
Параметр матрицы формата : Выборочная
Идентификатор кодека : XVID
Идентификатор кодека/Подсказка : XviD
Продолжительность : 1 ч. 23 м.
Битрейт : 1951 Кбит/сек
Ширина : 720 пикселей
Высота : 304 пикселя
Соотношение сторон : 2,35:1
Частота кадров : 23,976 кадра/сек
Цветовое пространство : YUV
Субдискретизация насыщенности : 4:2:0
Битовая глубина : 8 бит
Тип развёртки : Прогрессивная
Метод сжатия : С потерями
Бит/(Пиксели*Кадры) : 0.372
Размер потока : 1,14 Гбайт (83%)
Библиотека кодирования : XviD 1.2.1 (UTC 2008-12-04)

Аудио
Идентификатор : 1
Формат : AC-3
Формат/Информация : Audio Coding 3
Расширение режима : CM (complete main)
Параметр Endianness формата : Big
Идентификатор кодека : 2000
Продолжительность : 1 ч. 23 м.
Вид битрейта : Постоянный
Битрейт : 384 Кбит/сек
Каналы : 2 канала
Расположение каналов : Front: L R
Частота : 48,0 КГц
Битовая глубина : 16 бит
Метод сжатия : С потерями
Размер потока : 229 Мбайт (16%)
Выравнивание : Разделение по промежуткам
Продолжительность промежутка : 42 мс. (1,00 видеокадр)
Время предзагрузки промежутка : 500 мс.

pb.wtf



Скачать Страна маленьких людей через торрент https://c.radikal.ru/c11/1807/e0/b039c66cb850.jpg Скачать фильм Страна маленьких людей через торрент бесплантно в хорошем качестве Описание: Четверо детей, живущих в деревне военных офицеров, образуют небольшую банду. Старая заброшенная армейская база, расположенная в ... 7.8 10 4
Торрент: Зарегистрирован [2018-07-16 04:52] · скачан: 87 раз
Статус: T временная
Размер: 1.37 GB
Как cкачать? Как скачать Страна маленьких людей через торрент | qTorrent

28-11-2019 20:33  

Отключить всю рекламу на сайте

18-08-2018 21:05 Страна маленьких людей Скачать торрент  

алексей долматов! Я сегодня впервые узнал о тебе из рекламы! Так сдохни же в страшных муках вместе со своим блевотным творчеством!!!
А по теме - бред какой-то. Я не поощряю дезертирство и в данном фильме представлял их монстрами-убийцами какими-нибудь, но увы, смерти я желал только кровожадным детям-провокаторам.pb.wtf



    Дорогой пользователь! Огромная просьба, поблагодарите релизера, оцените раздачу и оставьте свои комментарий, если Вы скачали Страна маленьких людей через торрент бесплатно! Внесите свою лепту в развитие PiratBit!
    Комментировать посты могут только пользователи прошедшие не сложную регистрацию
    Показать сообщения:    

    Страна маленьких людей через торрент
    Скачать бесплатно Страна маленьких людей
    Страна маленьких людей скачать торрент
    Страна маленьких людей смотреть онлайн
    Cкачать фильм Страна маленьких людей бесплатно
    Страна маленьких людей скачать торрент в хорошем качестве
    Страна маленьких людей смотреть онлайн бесплатно в хорошем качестве


    Вы не можете начинать темы
    Вы не можете отвечать на сообщения
    Вы не можете редактировать свои сообщения
    Вы не можете удалять свои сообщения
    Вы не можете голосовать в опросах
    Вы не можете прикреплять файлы к сообщениям
    Вы можете скачивать файлы