Ссылка на приватное зеркало всего за 1$. Внимание количество ограничено!!!

OK

1+1

iTunes

мы

OK

1

WEB-DLRip

Джокер

Пифагор

Ведьмак / The Witcher сериал

Лицензия

ПШазам

ОК

Оно 2

iTunes

30
pack

Вам бонус

ВАЖНО

!!Акция!!

Alien_RageХит недели

RePack

Resident Evil 21

ИГРА 18+

pack

RePack

jed

RePack

fifa19

RePack

Assassins Creed: Odyssey

RePack

NEED FOR SPEED™ PAYBACK

4 сезон

9 сезон

Бесстыжие 9 сезон

Все сериалы

все сериалы на PB.wtf

RePack

FAR CRY 5
  

Фобия / Haunted / Hjemsøkt (Карл Кристиан Робе) [2017, ужасы, триллер, драма, криминал, WEB-DL 720p] MVO [@MUZOBOZ@] pb.wtf

Фобия через торрент pb.wtf

Размер: 3.02 GB | Добавлен: 1 год 6 мес. назад | Торрент скачан:99 раз
Скачать  

16-07-2018 06:34 Фобия Скачать торрент  

Фобия / Haunted / Hjemsøkt
Год выпуска: 2017
Страна: Норвегия
Жанр: ужасы, триллер, драма, криминал
Продолжительность: 01:22:18
Перевод: Любительский (многоголосый) | @MUZOBOZ@
Субтитры: отсутствуют

Режиссер: Карл Кристиан Робе

rating

В ролях:

Синневе Макоди Лунд, Эбба Стинстрап, Кен Ведсегор, Эдуардо Гарсиа-Драгесет, Сесиль Ёстад, Пол Эспен Килстад, Йорунн Кьеллсби, Ола Отнес, Ян Альфред Сандвен, Роберт Скйэрстад

Описание:

После смерти отца, Кэтрин получает в наследство семейное поместье. Чтобы забыть о прошлом, она решает его продать. Когда Кэтрин приезжает в полузаброшенный дом, с ней начинают происходить загадочные и необъяснимые события.

Среди местных жителей ходят истории о таинственных исчезновениях и возможных убийствах, связанных с проклятым имением. Ей предстоит выяснить, связаны ли её страхи с этими событиями или это лишь плод её воображения...

Качество: WEB-DL 720p
Формат: MKV

Видео: h.264, 4 859 kb/s, 1280x536
Аудио#1: Русский, (AC3, 2 ch, 384 Кбит/с)
скриншот  скриншот  скриншот  

Общее
Уникальный идентификатор : 178185376852590165201784535425855217210 (0x860D415AE5B59C7DBDE3982C44735E3A)
Полное имя : D:\Haunted.2018.P.WEB-DL.72Op_KOSHARA.mkv
Формат : Matroska
Версия формата : Version 2
Размер файла : 3,02 Гбайт
Продолжительность : 1 ч. 22 м.
Режим общего битрейта : Переменный
Общий поток : 5245 Кбит/сек
Дата кодирования : UTC 2018-07-14 13:18:06
Программа кодирования : mkvmerge v8.3.0 ('Over the Horizon') 64bit
Библиотека кодирования : libebml v1.3.1 + libmatroska v1.4.2

Видео
Идентификатор : 1
Формат : AVC
Формат/Информация : Advanced Video Codec
Профиль формата : High@L4.1
Параметр CABAC формата : Да
Параметр RefFrames формата : 4 кадра
Идентификатор кодека : V_MPEG4/ISO/AVC
Продолжительность : 1 ч. 22 м.
Вид битрейта : Переменный
Битрейт : 4859 Кбит/сек
Максимальный битрейт : 5500 Кбит/сек
Ширина : 1280 пикселей
Высота : 536 пикселей
Соотношение сторон : 2,40:1
Режим частоты кадров : Постоянный
Частота кадров : 23,976 (24000/1001) кадра/сек
Стандарт вещания : Component
Цветовое пространство : YUV
Субдискретизация насыщенности : 4:2:0
Битовая глубина : 8 бит
Тип развёртки : Прогрессивная
Бит/(Пиксели*Кадры) : 0.289
Размер потока : 2,73 Гбайт (91%)
Default : Да
Forced : Нет
Цветовой диапазон : Limited
Основные цвета : BT.709
Характеристики трансфера : BT.709
Коэффициенты матрицы : BT.709

Аудио
Идентификатор : 2
Формат : AC-3
Формат/Информация : Audio Coding 3
Расширение режима : CM (complete main)
Параметр Endianness формата : Big
Идентификатор кодека : A_AC3
Продолжительность : 1 ч. 22 м.
Вид битрейта : Постоянный
Битрейт : 384 Кбит/сек
Каналы : 2 канала
Расположение каналов : Front: L R
Частота : 48,0 КГц
Частота кадров : 31,250 кадров/сек (1536 spf)
Метод сжатия : С потерями
Размер потока : 226 Мбайт (7%)
Default : Да
Forced : Нет

pb.wtf



Скачать Фобия через торрент http://img11.lostpic.net/2018/06/27/5900298aa889203877cd4c216a600279.jpg Скачать фильм Фобия через торрент бесплантно в хорошем качестве Описание: После смерти отца, Кэтрин получает в наследство семейное поместье. Чтобы забыть о прошлом, она решает его продать. Когда Кэтрин ... 8.9 10 8
Торрент: Зарегистрирован [2018-07-16 06:34] · скачан: 99 раз
Статус: T временная
Размер: 3.02 GB
Как cкачать? Как скачать Фобия через торрент | qTorrent

% Раздел Тема Автор DL S | L
T Фильмы (мультфильмы) cо спонсором показа (Новинки AVI/MKV) [ 1.36 GB ] Фобия / Haunted / Hjemsøkt [2017 WEB-DLRip] MVO [@MUZOBOZ@] bober100 Скачать
1 | 0
T Фильмы (мультфильмы) cо спонсором показа (Новинки AVI/MKV) [ 1.36 GB ] Фобия / Haunted / Hjemsøkt [2017 WEB-DLRip] [DUB с TS] killermax2013 Скачать
1 | 0
T Фильмы (мультфильмы) cо спонсором показа (Новинки AVI/MKV) [ 3.05 GB ] Фобия / Haunted / Hjemsøkt [2017 WEB-DL 720p] [DUB с TS] killermax2013 Скачать
1 | 0

28-11-2019 20:33  

Отключить всю рекламу на сайте


16-07-2018 08:16 Фобия Скачать торрент  

Алло есть кто! Вот и весь семпл)pb.wtf



16-07-2018 18:06 Фобия Скачать торрент  

Неплохой фильм,найс.pb.wtf



    Дорогой пользователь! Огромная просьба, поблагодарите релизера, оцените раздачу и оставьте свои комментарий, если Вы скачали Фобия через торрент бесплатно! Внесите свою лепту в развитие PiratBit!
    Комментировать посты могут только пользователи прошедшие не сложную регистрацию
    Показать сообщения:    

    Фобия через торрент
    Скачать бесплатно Фобия
    Фобия скачать торрент
    Фобия смотреть онлайн
    Cкачать фильм Фобия бесплатно
    Фобия скачать торрент в хорошем качестве
    Фобия смотреть онлайн бесплатно в хорошем качестве


    Вы не можете начинать темы
    Вы не можете отвечать на сообщения
    Вы не можете редактировать свои сообщения
    Вы не можете удалять свои сообщения
    Вы не можете голосовать в опросах
    Вы не можете прикреплять файлы к сообщениям
    Вы можете скачивать файлы