Ссылка на приватное зеркало нашего сайта всего за 1$. Внимание количество ограничено!!!

2 сезон

iTunes

1 сезон

1

2 сезон

2 сезон

iTunes

1 сезон

RePack

30

Ultimate

ВАЖНО

ИГРА 18+

pack

RePack

MK11
pack

Забери бонус

RePack

jed

!!Акция!!

Alien_Rage

RePack

fifa19

RePack

Assassins Creed: Odyssey

RePack

NEED FOR SPEED™ PAYBACK

4 сезон

9 сезон

Бесстыжие 9 сезон

Все сериалы

все сериалы на PB.wtf

RePack

FAR CRY 5
  

Валькирия / Valkyrien / Сезон: 1 / Серии: 1-8 из 8 (Эрик Рихтер Странн) [2017, триллер, криминал, BDRip 720p] [MVO] (FilmsClub) pb.wtf

Валькирия через торрент pb.wtf

Размер: 9.85 GB | Добавлен: 2 года 4 мес. назад | Торрент скачан:118 раз
Скачать  

16-07-2018 11:37 Валькирия Скачать торрент  

Валькирия / Valkyrien
Год выпуска: 2017
Жанр: триллер, криминал
Выпущено: Норвегия, NRK
Страна: Норвегия
Продолжительность: ~ 00:45:31
Перевод: Профессиональный (многоголосый, закадровый)
*FilmsClub*
Субтитры: английские

Режиссер: Эрик Рихтер Странн

В ролях: Свен Нордин, Пол Сверре, Валхейм Хаген, Пиа Хальворсен, Эллен Биргитте Уинтер, Миккель Братт Сильсет, Лайла Гуди, Йоахим Рафаелсен, Амели Инсунсет Агбута

Описание: Молодой врач по имени Райвен работает в небольшой частной клинике и спасает жизни многим людям. У него нет большого кабинета и социального пакета, поскольку герой занимается не совсем законной деятельностью, а все его пациенты преступники, которым необходимо как можно реже показываться в обществе. Но почему герой, обладая талантом, пошел работать именно сюда? Всё очень просто: здесь он имеет полную свободу действий и доступ к экспериментам...

rating

Файл
Качество: BDRip (720p)
Формат: MKV
Видео: AVC(High@L4.1), 1280x640| 2921 kbps| 25fps
Аудио 1: AC3 , 5.1 / 48 kHz / 384 kbps / 16-bit - *FilmsClub*
Аудио 2: AC3 , 5.1 / 48 Khz / 640 kbps / 16-bit - Original
General
Unique ID : 81813270107846472444940402862291102205 (0x3D8CA9A50FD6C0ED447F7275070F29FD)
Complete name : F:\Valkyrien.S01.720p-films.club\Valkyrien.S01E01.720p.BluRay.DD5.1.x264-films.club.mkv
Format : Matroska
Format version : Version 4 / Version 2
File size : 1.26 GiB
Duration : 46 min 3 s
Overall bit rate : 3 911 kb/s
Encoded date : UTC 2018-07-06 10:50:18
Writing application : mkvmerge v24.0.0 ('Beyond The Pale') 64-bit
Writing library : libebml v1.3.6 + libmatroska v1.4.9

Video
ID : 1
Format : AVC
Format/Info : Advanced Video Codec
Format profile : Main@L3.1
Format settings : CABAC / 1 Ref Frames
Format settings, CABAC : Yes
Format settings, RefFrames : 1 frame
Codec ID : V_MPEG4/ISO/AVC
Duration : 46 min 3 s
Bit rate : 2 921 kb/s
Width : 1 280 pixels
Height : 640 pixels
Display aspect ratio : 2.000
Frame rate mode : Constant
Frame rate : 25.000 FPS
Color space : YUV
Chroma subsampling : 4:2:0
Bit depth : 8 bits
Scan type : Progressive
Bits/(Pixel*Frame) : 0.143
Stream size : 926 MiB (72%)
Writing library : x264 core 129
Encoding settings : cabac=1 / ref=1 / deblock=1:0:0 / analyse=0x1:0x131 / me=dia / subme=2 / psy=1 / psy_rd=1.00:0.00 / mixed_ref=0 / me_range=16 / chroma_me=1 / trellis=0 / 8x8dct=0 / cqm=0 / deadzone=21,11 / fast_pskip=1 / chroma_qp_offset=0 / threads=8 / lookahead_threads=1 / sliced_threads=0 / nr=0 / decimate=1 / interlaced=0 / bluray_compat=0 / constrained_intra=0 / bframes=0 / weightp=2 / keyint=250 / keyint_min=25 / scenecut=40 / intra_refresh=0 / rc_lookahead=40 / rc=abr / mbtree=1 / bitrate=2921 / ratetol=1.0 / qcomp=0.60 / qpmin=10 / qpmax=51 / qpstep=4 / ip_ratio=1.41 / aq=1:1.00
Default : Yes
Forced : No

Audio #1
ID : 2
Format : AC-3
Format/Info : Audio Coding 3
Format settings, Endianness : Big
Codec ID : A_AC3
Duration : 46 min 3 s
Bit rate mode : Constant
Bit rate : 384 kb/s
Channel(s) : 6 channels
Channel positions : Front: L C R, Side: L R, LFE
Sampling rate : 48.0 kHz
Frame rate : 31.250 FPS (1536 SPF)
Bit depth : 16 bits
Compression mode : Lossy
Stream size : 127 MiB (10%)
Title : films.club
Language : Russian
Service kind : Complete Main
Default : Yes
Forced : No

Audio #2
ID : 3
Format : AC-3
Format/Info : Audio Coding 3
Format settings, Endianness : Big
Codec ID : A_AC3
Duration : 46 min 3 s
Bit rate mode : Constant
Bit rate : 640 kb/s
Channel(s) : 6 channels
Channel positions : Front: L C R, Side: L R, LFE
Sampling rate : 48.0 kHz
Frame rate : 31.250 FPS (1536 SPF)
Bit depth : 16 bits
Compression mode : Lossy
Stream size : 211 MiB (16%)
Title : original
Language : Norwegian
Service kind : Complete Main
Default : No
Forced : No

Text
ID : 4
Format : UTF-8
Codec ID : S_TEXT/UTF8
Codec ID/Info : UTF-8 Plain Text
Title : English
Language : English
Default : No
Forced : No
скриншот   скриншот   скриншот  
pb.wtf



Скачать Валькирия через торрент http://i104.fastpic.ru/big/2018/0716/2f/4c2a8e02e9ad056b432962d09552f22f.jpg Скачать фильм Валькирия через торрент бесплантно в хорошем качестве Описание: Молодой врач по имени Райвен работает в небольшой частной клинике и спасает жизни многим людям. У него нет большого кабинета и ... 10 10 5
Торрент: Зарегистрирован [2018-07-16 11:37] · скачан: 118 раз
Статус: √ проверено
Размер: 9.85 GB
Как cкачать? Как скачать Валькирия через торрент | qTorrent

% Раздел Тема Автор DL S | L
Зарубежные сериалы [ 38.64 GB ] Валькирия / Valkyrien / Сезон: 1 / Серии: 1-8 из 8 [2017 BDRip 1080p] [MVO] killermax2013 Скачать
1 | 0

28-11-2019 20:33  

Отключить всю рекламу на сайте

    Дорогой пользователь! Огромная просьба, поблагодарите релизера, оцените раздачу и оставьте свои комментарий, если Вы скачали Валькирия через торрент бесплатно! Внесите свою лепту в развитие PiratBit!
    Комментировать посты могут только пользователи прошедшие не сложную регистрацию
    Показать сообщения:    

    Валькирия через торрент
    Скачать бесплатно Валькирия
    Валькирия скачать торрент
    Валькирия смотреть онлайн
    Cкачать фильм Валькирия бесплатно
    Валькирия скачать торрент в хорошем качестве
    Валькирия смотреть онлайн бесплатно в хорошем качестве


    Вы не можете начинать темы
    Вы не можете отвечать на сообщения
    Вы не можете редактировать свои сообщения
    Вы не можете удалять свои сообщения
    Вы не можете голосовать в опросах
    Вы не можете прикреплять файлы к сообщениям
    Вы можете скачивать файлы