Ссылка на приватное зеркало нашего сайта всего за 1$. Внимание количество ограничено!!!

2 сезон

iTunes

1 сезон

1

iTunes

iTunes

iTunes

1 сезон

RePack

30

ИГРА 18+

pack

ВАЖНО

!!Акция!!

Alien_RageХит недели

RePack

MK11
pack

Забери бонус

RePack

jed

!!Акция!!

Alien_Rage

RePack

fifa19

RePack

Assassins Creed: Odyssey

RePack

NEED FOR SPEED™ PAYBACK

4 сезон

9 сезон

Бесстыжие 9 сезон

Все сериалы

все сериалы на PB.wtf

RePack

FAR CRY 5
  

Старушки в бегах / Серия 1-8 из 8 / (Алексей Колмогоров) [2018 г., Комедия, Мелодрама, SATRip] pb.wtf

Старушки в бегах через торрент pb.wtf

Размер: 5.48 GB | Добавлен: 2 года 3 мес. назад | Торрент скачан:18 раз
Скачать  

16-07-2018 12:42 Старушки в бегах Скачать торрент  

Старушки в бегах / Серия 1-8 из 8 /
Год выпуска: 2018
Страна: Россия
Жанр: Комедия, Мелодрама
Продолжительность: 8 х 00:45:00
Субтитры: Нет

Режиссер: Алексей Колмогоров

В ролях: Елена Сафонова, Татьяна Орлова, Марина Яковлева, Галина Беляева, Сергей Баталов, Дмитрий Богданов, Алёна Коломина, Евгения Серебренникова, Сергей Загребнев, Вячеслав Манучаров, Александра Булычёва, Вера Воронкова, Анатолий Наумов, Алеса Качер и др.

Описание: Три подруги Зина, Лида и Катя живут вместе со своими взрослыми детьми. Вечный «квартирный вопрос» переплетается с такой же вечной темой «отцов и детей». И в один прекрасный день дамы решают уехать и освободить своих детей от накопившихся проблем…

Качество: SATRip
Формат: AVI
Видео кодек: XviD
Аудио кодек: MP3
Видео: XviD, 1800 Кбит/с, 704x448
Аудио#1: МР3, 2 ch, 128 Кбит/с
скриншот   скриншот   скриншот   скриншот  

General
Complete name : H:\релизы.торрентфайл\Старушки в беге(2018)\Starushki.v.begah.01.SATRip.[www.riperam.org].avi
Format : AVI
Format/Info : Audio Video Interleave
File size : 714 MiB
Duration : 51mn 23s
Overall bit rate : 1 941 Kbps

Video
ID : 0
Format : MPEG-4 Visual
Format profile : Advanced Simple@L5
Format settings, BVOP : 2
Format settings, QPel : No
Format settings, GMC : No warppoints
Format settings, Matrix : Default (H.263)
Codec ID : XVID
Codec ID/Hint : XviD
Duration : 51mn 23s
Bit rate : 1 800 Kbps
Width : 704 pixels
Height : 448 pixels
Display aspect ratio : 1.571
Frame rate : 25.000 fps
Color space : YUV
Chroma subsampling : 4:2:0
Bit depth : 8 bits
Scan type : Progressive
Compression mode : Lossy
Bits/(Pixel*Frame) : 0.228
Stream size : 662 MiB (93%)
Writing library : XviD 1.2.1 (UTC 2008-12-04)

Audio
ID : 1
Format : MPEG Audio
Format version : Version 1
Format profile : Layer 3
Mode : Joint stereo
Mode extension : MS Stereo
Codec ID : 55
Codec ID/Hint : MP3
Duration : 51mn 23s
Bit rate mode : Constant
Bit rate : 128 Kbps
Channel(s) : 2 channels
Sampling rate : 48.0 KHz
Compression mode : Lossy
Stream size : 47.1 MiB (7%)
Alignment : Aligned on interleaves
Interleave, duration : 24 ms (0.60 video frame)
Writing library : LAME3.99r
Encoding settings : -m j -V 4 -q 9 -lowpass 17 -b 128

Внимание! Раздача ведётся путём добавления новых серий; при каждом добавлении создётся новый торрент. Чтобы начать докачку новой серии, пользователям необходимо сделать следующее:
  • Остановить скачивание,
  • Удалить старый торрент у себя из клиента (старые серии удалять не надо),
  • Скачать новый торрент и запустить его у себя в клиенте вместо старого, при этом указать клиенту путь в старую папку куда и должно происходить скачивание новых серий.
Ваш клиент при этом должен произвести хеширование (проверку) старой папки (если не производит сам - помогите ему сделать это), и будет докачивать только те серии которых у вас ещё нет. Старые серии при этом не удаляются, а продолжают раздаваться!

Eсли вы уже удалили старые серии, то предотвратить повторную закачку старых серий можно, отжав галочку в соответсвующих местах при запуске нового торрента. По возможности, желательно не удалять старые серии как можно дольше чтобы релизёр не столько продолжал раздавать старые серии, а смог сконцентрироваться на новых.
pb.wtf



Скачать Старушки в бегах через торрент http://pic1.kartinco.top/images/11/16w5q.jpg Скачать фильм Старушки в бегах через торрент бесплантно в хорошем качестве Описание: Три подруги Зина, Лида и Катя живут вместе со своими взрослыми детьми. Вечный «квартирный вопрос» переплетается с такой же вечной ... 9 10 9
Торрент: Зарегистрирован [2018-07-19 21:47] · скачан: 18 раз
Статус: √ проверено
Размер: 5.48 GB
Как cкачать? Как скачать Старушки в бегах через торрент | qTorrent

% Раздел Тема Автор DL S | L
Наши сериалы [ 10.61 GB ] Старушки в бегах / Сезон: 1 / Серии: 1-8 из 8 [2018 Мело HDTVRip 720p] bober100 Скачать
1 | 0
Наши сериалы [ 5.74 GB ] Старушки в бегах / Сезон: 1 / Серии: 1-8 из 8 [2018 Мело HDTVRip] bober100 Скачать
1 | 0
Наши сериалы [ 5.15 GB ] Старушки в бегах / Серии: 1-8 из 8 [2018 SATRip-AVC] aleksan55 Скачать
1 | 0
Наши сериалы [ 21.86 GB ] Старушки в бегах / Сезон: 1 / Серии: 1-8 из 8 [2018 Мело HDTV 1080i] bober100 Скачать
1 | 0

28-11-2019 20:33  

Отключить всю рекламу на сайте

    Дорогой пользователь! Огромная просьба, поблагодарите релизера, оцените раздачу и оставьте свои комментарий, если Вы скачали Старушки в бегах через торрент бесплатно! Внесите свою лепту в развитие PiratBit!
    Комментировать посты могут только пользователи прошедшие не сложную регистрацию
    Показать сообщения:    

    Старушки в бегах через торрент
    Скачать бесплатно Старушки в бегах
    Старушки в бегах скачать торрент
    Старушки в бегах смотреть онлайн
    Cкачать фильм Старушки в бегах бесплатно
    Старушки в бегах скачать торрент в хорошем качестве
    Старушки в бегах смотреть онлайн бесплатно в хорошем качестве


    Вы не можете начинать темы
    Вы не можете отвечать на сообщения
    Вы не можете редактировать свои сообщения
    Вы не можете удалять свои сообщения
    Вы не можете голосовать в опросах
    Вы не можете прикреплять файлы к сообщениям
    Вы можете скачивать файлы