2 сезон

iTunes

MVO

1

2 сезон

iTunes

iTunes

1 сезон

RePack

30

Новинка

ВАЖНО

ИГРА 18+

pack

RePack

MK11
pack

Легкие деньги

RePack

jed

RePack

fifa19

RePack

RDR2

RePack

NEED FOR SPEED™ PAYBACK

4 сезон

9 сезон

Бесстыжие 9 сезон

Все сериалы

все сериалы на PB.wtf

RePack

FAR CRY 5

Anonymous, доброй ночи, мы не успеваем собрать деньги на оплату серверов за декабрь и январь, помогите нам пожалуйста в это трудное время. В качестве благодарности мы отключим Вам всю рекламу на сайте (укажите свой ник в строку Ваше имя)!

×
  
Magnet ссылка

Сладостный край / Sweet Country (Уорвик Торнтон / Warwick Thornton) [2017, триллер, драма, криминал, приключения, вестерн, HDRip-AVC] [MVO] (HDRezka Studio) pb.wtf

Сладостный край через торрент pb.wtf

Размер: 1.43 GB | Добавлен: 2 года 6 мес. назад | Торрент скачан:254 раза
Скачать  

16-07-2018 16:12 Сладостный край Скачать торрент  

Сладостный край / Sweet Country«Justice seen to be done just isn't enough» Страна: Австралия
Жанр: триллер, драма, криминал, приключения, вестерн
Год выпуска: 2017
Продолжительность: 01:52:53
Перевод: Профессиональный (многоголосый закадровый) HDRezka Studio
Субтитры: нет

Режиссер: Уорвик Торнтон / Warwick Thornton

В ролях: Брайан Браун, Мэтт Дэй, Тремейн Дулан, Тревон Дулан, Анни Финстерер

Описание: Австралия, 1920-е годы. Абориген Сэм убивает белого землевладельца, спасая собственную жизнь. Когда за ним разворачивается ожесточённая охота, Сэм сдаётся властям ради безопасности беременной жены. Остаётся надеяться только на справедливость суда.



Качество видео: HDRip-AVC / BDRip 720p
Формат видео: MKV
Видео: MPEG-4 AVC, 914x382 (2.40:1), 24.000 fps, ~1587 kbps avg, 0.189 bit/pixel
Аудио: 48 kHz, AC3 Dolby Digital, 2/0 (L,R) ch, ~192 kbps avg
Complete name               : D:\Раздача\Сладостный край (2017) HDRip-AVC_ivanes20031987.mkv
Format                      : Matroska
Format version              : Version 2
File size                   : 1.43 GiB
Duration                    : 1 h 52 min
Overall bit rate            : 1 815 kb/s
Movie name                  : Сладостный край (2017) HDRip-AVC_ivanes20031987
Encoded date                : UTC 2018-07-06 14:26:48
Writing application         : mkvmerge v4.4.0 ('Die Wiederkehr') сборка от Jan  3 2011 21:40:45
Writing library             : libebml v1.0.0 + libmatroska v1.0.0
Cover                       : Yes
Attachments                 : cover.jpg

Video
ID                          : 1
Format                      : AVC
Format/Info                 : Advanced Video Codec
Format profile              : High@L4.1
Format settings, CABAC      : Yes
Format settings, RefFrames  : 14 frames
Codec ID                    : V_MPEG4/ISO/AVC
Duration                    : 1 h 52 min
Bit rate                    : 1 587 kb/s
Width                       : 914 pixels
Height                      : 382 pixels
Display aspect ratio        : 2.40:1
Frame rate mode             : Constant
Frame rate                  : 24.000 FPS
Color space                 : YUV
Chroma subsampling          : 4:2:0
Bit depth                   : 8 bits
Scan type                   : Progressive
Bits/(Pixel*Frame)          : 0.189
Stream size                 : 1.25 GiB (87%)
Title                       : Rip by ivanes20031987
Writing library             : x264 core 155 r2901 7d0ff22
Encoding settings           : cabac=1 / ref=14 / deblock=1:-3:-3 / analyse=0x3:0x113 / me=umh / subme=10 / psy=1 / psy_rd=1.00:0.00 / mixed_ref=1 / me_range=32 / chroma_me=1 / trellis=2 / 8x8dct=1 / cqm=0 / deadzone=21,11 / fast_pskip=0 / chroma_qp_offset=-2 / threads=12 / lookahead_threads=2 / sliced_threads=0 / nr=0 / decimate=0 / interlaced=0 / bluray_compat=0 / constrained_intra=0 / bframes=14 / b_pyramid=2 / b_adapt=2 / b_bias=0 / direct=1 / weightb=1 / open_gop=0 / weightp=2 / keyint=240 / keyint_min=24 / scenecut=40 / intra_refresh=0 / rc_lookahead=60 / rc=crf / mbtree=0 / crf=16.8 / qcomp=0.60 / qpmin=0 / qpmax=69 / qpstep=4 / vbv_maxrate=50000 / vbv_bufsize=62500 / crf_max=0.0 / nal_hrd=none / filler=0 / ip_ratio=1.40 / pb_ratio=1.30 / aq=1:1.00
Default                     : Yes
Forced                      : No

Audio
ID                          : 2
Format                      : AC-3
Format/Info                 : Audio Coding 3
Format settings, Endianness : Big
Codec ID                    : A_AC3
Duration                    : 1 h 52 min
Bit rate mode               : Constant
Bit rate                    : 192 kb/s
Channel(s)                  : 2 channels
Channel positions           : Front: L R
Sampling rate               : 48.0 kHz
Frame rate                  : 31.250 FPS (1536 SPF)
Bit depth                   : 16 bits
Compression mode            : Lossy
Stream size                 : 155 MiB (11%)
Title                       : HDRezka Studio
Language                    : Russian
Service kind                : Complete Main
Default                     : Yes
Forced                      : No
x264 [info]: frame I:985   Avg QP:14.16  size: 70078
x264 [info]: frame P:39223 Avg QP:16.37  size: 18810
x264 [info]: frame B:122363 Avg QP:18.06  size:  4626
x264 [info]: consecutive B-frames:  3.2%  3.2%  6.3% 39.3% 11.7% 27.7%  2.8%  2.9%  0.5%  0.5%  0.2%  0.1%  0.2%  0.2%  1.1%
x264 [info]: mb I  I16..4:  6.0% 70.7% 23.3%
x264 [info]: mb P  I16..4:  0.9%  5.6%  1.2%  P16..4: 37.2% 26.4% 19.1%  0.0%  0.0%    skip: 9.7%
x264 [info]: mb B  I16..4:  0.1%  0.5%  0.2%  B16..8: 30.6% 12.8%  4.6%  direct: 5.0%  skip:46.2%  L0:38.8% L1:46.1% BI:15.1%
x264 [info]: 8x8 transform intra:70.9% inter:45.1%
x264 [info]: coded y,uvDC,uvAC intra: 84.9% 78.5% 59.8% inter: 22.7% 13.2% 6.2%
x264 [info]: i16 v,h,dc,p: 66% 16% 10%  9%
x264 [info]: i8 v,h,dc,ddl,ddr,vr,hd,vl,hu: 12% 13% 13%  7% 11% 11% 10% 10% 11%
x264 [info]: i4 v,h,dc,ddl,ddr,vr,hd,vl,hu:  9% 25%  6%  7% 13% 12% 11%  8% 10%
x264 [info]: i8c dc,h,v,p: 45% 26% 18% 11%
x264 [info]: Weighted P-Frames: Y:5.9% UV:3.6%
x264 [info]: ref P L0: 57.4% 10.6% 12.5%  4.7%  3.7%  2.7%  2.3%  1.3%  1.2%  0.9%  0.8%  0.7%  0.6%  0.6%  0.1%  0.0%
x264 [info]: ref B L0: 75.5% 10.2%  4.9%  2.4%  1.8%  1.5%  1.2%  0.7%  0.6%  0.4%  0.4%  0.3%  0.1%
x264 [info]: ref B L1: 95.0%  5.0%
x264 [info]: kb/s:1621.36
скриншот  скриншот  скриншот  
pb.wtf



Скачать Сладостный край через торрент http://i105.fastpic.ru/big/2018/0706/7c/745ff178b42a2e6cea6dd3ce291d1b7c.jpg Скачать фильм Сладостный край через торрент бесплантно в хорошем качестве Описание: Австралия, 1920-е годы. Абориген Сэм убивает белого землевладельца, спасая собственную жизнь. Когда за ним разворачивается ... 9.8 10 8
Торрент: Зарегистрирован [2018-07-16 16:12] · скачан: 254 раз
Статус: T временная
Размер: 1.43 GB
Как cкачать? Как скачать Сладостный край через торрент | UTorrent

% Раздел Тема Автор DL S | L
Фильмы с авторской озвучкой [ 1.45 GB ] Сладостный край / Sweet Country [2017 HDRip] AVO [BadBajo] - ExKinoRay Enigma2010 Скачать
1 | 0

28-11-2019 20:33  

Отключить всю рекламу на сайте

23-07-2018 13:11 Сладостный край Скачать торрент  

Муторный фильм, не понимаю жалко потрачено времени или нет
ну 5.5 ему можно натянутьpb.wtf



06-09-2018 18:12 Сладостный край Скачать торрент  

Очень не банальное кино. Хороший серьезный фильм для зрелых зрителей, которые уже разобрались в том, что им нравится, а что нет, и просто выключают неинтересный им фильм через 10 минут просмотра. Тема не очень известная широкой публике. Отличная режиссура, прекрасная игра артистов, реалистичные декорации и костюмы, великолепные пейзажи. Качество видео и перевод нормальные. Спасибо за раздачу.pb.wtf



    Дорогой пользователь! Огромная просьба, поблагодарите релизера, оцените раздачу и оставьте свои комментарий, если Вы скачали Сладостный край через торрент бесплатно! Внесите свою лепту в развитие PiratBit!
    Комментировать посты могут только пользователи прошедшие не сложную регистрацию
    Показать сообщения:    

    Сладостный край через торрент
    Скачать бесплатно Сладостный край
    Сладостный край скачать торрент
    Сладостный край смотреть онлайн
    Cкачать фильм Сладостный край бесплатно
    Сладостный край скачать торрент в хорошем качестве
    Сладостный край смотреть онлайн бесплатно в хорошем качестве


    Вы не можете начинать темы
    Вы не можете отвечать на сообщения
    Вы не можете редактировать свои сообщения
    Вы не можете удалять свои сообщения
    Вы не можете голосовать в опросах
    Вы не можете прикреплять файлы к сообщениям
    Вы можете скачивать файлы