Ссылка на приватное зеркало нашего сайта всего за 1$. Внимание количество ограничено!!!

2 сезон

iTunes

1 сезон

1

iTunes

iTunes

iTunes

1 сезон

RePack

30

ИГРА 18+

pack

ВАЖНО

!!Акция!!

Alien_RageХит недели

RePack

MK11
pack

Забери бонус

RePack

jed

!!Акция!!

Alien_Rage

RePack

fifa19

RePack

Assassins Creed: Odyssey

RePack

NEED FOR SPEED™ PAYBACK

4 сезон

9 сезон

Бесстыжие 9 сезон

Все сериалы

все сериалы на PB.wtf

RePack

FAR CRY 5
  

Старушки в бегах / Серии: 1-8 из 8 (Иван Бычков) [2018,комедия, мелодрама, SATRip-AVC] pb.wtf

Старушки в бегах через торрент pb.wtf

Размер: 5.15 GB | Добавлен: 2 года 3 мес. назад | Торрент скачан:75 раз
Скачать  

16-07-2018 19:10 Старушки в бегах Скачать торрент  


Старушки в бегах

Год выпуска: 2018
Страна: Россия | Фокус Фильм
Жанр: комедия, мелодрама
Продолжительность: ~ 00:51:00
Субтитры:нет

Режиссёр:Иван Бычков
В ролях:Елена Сафонова, Татьяна Орлова, Марина Яковлева, Галина Беляева, Сергей Баталов, Дмитрий Богданов, Алёна Коломина, Евгения Серебренникова, Сергей Загребнев, Вячеслав Манучаров, Александра Булычёва, Вера Воронкова, Анатолий Наумов , Алеса Качер, Наталья Унгард, Антон Батырев, Юлия Юрченко, Максим Литовченко, Константин Стрельников, Ксения Иванова, Александр Касаткин , Пётр Кудряшов, Дарья Лузина, Ирма Сафенкова, Александра Ровенских
Описание:Человеку в любом возрасте не достает любви. Особенно женщинам, у которых взрослые дети, а разделить проблемы с подросшим чадом рядом не с кем. Вот и получается, что милые дамы несут героически свой крест — с одной стороны, непонимание и вечный конфликт родителей и детей, с другой стороны, нерастраченной любви. Героини романтической комедии Старушки в бегах смотреть онлайн на самом деле никакие не старушки. А милые, прекрасные дамы, которым слегка за 40. Катя, Лида и Зина все они оказались в одинаковом положении. У троих подруг почти одинаковые проблемы. Взрослые дети абсолютно не понимают своих матерей.

Качество: SATRip-AVC
Формат: MKV
Видео кодек: H.264
Аудио кодек:AC3
Видео: MPEG4 Video (H264), 720x400, 25fps,1600 Kbps,bit/pixel 0.222
Аудио:AC3 48000Hz, stereo, 256 kbps,2 ch
Общее
Уникальный идентификатор : 227530498748412173057276983564157957917 (0xAB2CC7B354377A5FB606FFC6B9A5B71D)
Полное имя : E:\Старушки в бегах\01 серия_Старушки в бегах_rip by_Aleksan55.mkv
Формат : Matroska
Версия формата : Version 2
Размер файла : 659 Мбайт
Продолжительность : 51 м. 21 с.
Общий поток : 1794 Кбит/сек
Дата кодирования : UTC 2018-07-16 17:11:51
Программа кодирования : mkvmerge v7.8.0 ('River Man') 32bit built on Apr 3 2015 12:11:22
Библиотека кодирования : libebml v1.3.1 + libmatroska v1.4.2

Видео
Идентификатор : 1
Формат : AVC
Формат/Информация : Advanced Video Codec
Профиль формата : High@L4.1
Параметр CABAC формата : Да
Параметр ReFrames формата : 14 кадров
Идентификатор кодека : V_MPEG4/ISO/AVC
Продолжительность : 51 м. 21 с.
Битрейт : 1600 Кбит/сек
Ширина : 720 пикселей
Высота : 400 пикселей
Соотношение сторон : 16:9
Режим частоты кадров : Постоянный
Частота кадров : 25,000 кадров/сек
Цветовое пространство : YUV
Субдискретизация насыщенности : 4:2:0
Битовая глубина : 8 бит
Тип развёртки : Прогрессивная
Бит/(Пиксели*Кадры) : 0.222
Размер потока : 575 Мбайт (87%)
Библиотека кодирования : x264 core 146 r2538 121396c
Настройки программы : cabac=1 / ref=14 / deblock=1:-1:-1 / analyse=0x3:0x133 / me=umh / subme=9 / psy=1 / psy_rd=1.00:0.15 / mixed_ref=0 / me_range=32 / chroma_me=1 / trellis=2 / 8x8dct=1 / cqm=0 / deadzone=21,11 / fast_pskip=1 / chroma_qp_offset=-3 / threads=12 / lookahead_threads=1 / sliced_threads=0 / nr=0 / decimate=0 / interlaced=0 / bluray_compat=0 / constrained_intra=0 / bframes=14 / b_pyramid=2 / b_adapt=1 / b_bias=0 / direct=3 / weightb=1 / open_gop=0 / weightp=2 / keyint=250 / keyint_min=25 / scenecut=40 / intra_refresh=0 / rc_lookahead=40 / rc=2pass / mbtree=1 / bitrate=1600 / ratetol=1.0 / qcomp=0.60 / qpmin=0 / qpmax=39 / qpstep=4 / cplxblur=20.0 / qblur=0.5 / ip_ratio=1.40 / aq=1:1.20
Default : Да
Forced : Нет
Цветовой диапазон : Limited
Основные цвета : BT.601 PAL
Характеристики трансфера : BT.470 System B, BT.470 System G
Коэффициенты матрицы : BT.601

Аудио
Идентификатор : 2
Формат : AC-3
Формат/Информация : Audio Coding 3
Расширение режима : CM (complete main)
Параметр Endianness формата : Big
Идентификатор кодека : A_AC3
Продолжительность : 51 м. 21 с.
Вид битрейта : Постоянный
Битрейт : 192 Кбит/сек
Каналы : 2 канала
Расположение каналов : Front: L R
Частота : 48,0 КГц
Частота кадров : 31,250 кадров/сек (1536 spf)
Битовая глубина : 16 бит
Метод сжатия : С потерями
Размер потока : 70,5 Мбайт (11%)
Default : Да
Forced : Нет
[/code]
Когда раздача ведётся путём добавления новых серий, при каждом добавлении создётся новый торрент. Чтобы начать докачку новой серии, пользователям необходимо сделать следующее:
(1) остановить скачивание,
(2) удалить старый торрент у себя из клиента (старые серии удалять не надо),
(3) скачать новый торрент и запустить его у себя в клиенте вместо старого, при этом указать клиенту путь в старую папку, куда и должно происходить скачивание новых серий.
Ваш клиент при этом должен произвести хеширование (проверку) старой папки (если не производит сам - помогите ему сделать это), и будет докачивать только те серии, которых у вас ещё нет. Старые серии при этом не удаляются, а продолжают раздаваться!
Eсли вы уже удалили старые серии, то предотвратить повторную закачку старых серий можно, отжав галочку в соответсвующих местах при запуске нового торрента. По возможности, желательно не удалять старые серии как можно дольше, чтобы релизёр не столько продолжал раздавать старые серии, а смог сконцентрироваться на новых.

Добавлены 7-8 серия.pb.wtf



Скачать Старушки в бегах через торрент http://i105.fastpic.ru/big/2018/0716/2f/8fabd9ff87ad3d7778317663c156a22f.jpg Скачать фильм Старушки в бегах через торрент бесплантно в хорошем качестве Описание:Человеку в любом возрасте не достает любви. Особенно женщинам, у которых взрослые дети, а разделить проблемы с подросшим чадом ... 8.6 10 5
Info! Золотая раздача, скачанное не засчитывается.
Торрент: Зарегистрирован [2018-07-19 20:17] · скачан: 75 раз
Статус: √ проверено
Размер: 5.15 GB
Как cкачать? Как скачать Старушки в бегах через торрент | qTorrent

% Раздел Тема Автор DL S | L
Наши сериалы [ 10.61 GB ] Старушки в бегах / Сезон: 1 / Серии: 1-8 из 8 [2018 Мело HDTVRip 720p] bober100 Скачать
1 | 0
Наши сериалы [ 5.74 GB ] Старушки в бегах / Сезон: 1 / Серии: 1-8 из 8 [2018 Мело HDTVRip] bober100 Скачать
1 | 0
Наши сериалы [ 21.86 GB ] Старушки в бегах / Сезон: 1 / Серии: 1-8 из 8 [2018 Мело HDTV 1080i] bober100 Скачать
1 | 0
Наши сериалы [ 5.48 GB ] Старушки в бегах / Серия 1-8 из 8 / [2018 Мело SATRip] oleg8 Скачать
1 | 0

28-11-2019 20:33  

Отключить всю рекламу на сайте

19-07-2018 20:35 Старушки в бегах Скачать торрент  

Спасибо за раздачу!!!!!pb.wtf



    Дорогой пользователь! Огромная просьба, поблагодарите релизера, оцените раздачу и оставьте свои комментарий, если Вы скачали Старушки в бегах через торрент бесплатно! Внесите свою лепту в развитие PiratBit!
    Комментировать посты могут только пользователи прошедшие не сложную регистрацию
    Показать сообщения:    

    Старушки в бегах через торрент
    Скачать бесплатно Старушки в бегах
    Старушки в бегах скачать торрент
    Старушки в бегах смотреть онлайн
    Cкачать фильм Старушки в бегах бесплатно
    Старушки в бегах скачать торрент в хорошем качестве
    Старушки в бегах смотреть онлайн бесплатно в хорошем качестве


    Вы не можете начинать темы
    Вы не можете отвечать на сообщения
    Вы не можете редактировать свои сообщения
    Вы не можете удалять свои сообщения
    Вы не можете голосовать в опросах
    Вы не можете прикреплять файлы к сообщениям
    Вы можете скачивать файлы