Ссылка на приватное зеркало всего за 1$. Внимание количество ограничено!!!

OK

1+1

iTunes

мы

OK

1

WEB-DLRip

Джокер

Пифагор

Ведьмак / The Witcher сериал

iTunes

ПШазам

ОК

Оно 2

iTunes

30
pack

Вам бонус

ВАЖНО

!!Акция!!

Alien_RageХит недели

RePack

Resident Evil 21

ИГРА 18+

pack

RePack

jed

RePack

fifa19

RePack

Assassins Creed: Odyssey

RePack

NEED FOR SPEED™ PAYBACK

4 сезон

9 сезон

Бесстыжие 9 сезон

Все сериалы

все сериалы на PB.wtf

RePack

FAR CRY 5
  

Семья победителей / Family of Winners / Dian di lian meng (Уэйн Ван) [2017 г., Комедия, фантастика, WEB-DLRip, Любительский (многоголосый)] pb.wtf

Семья победителей через торрент pb.wtf

Размер: 1.37 GB | Добавлен: 1 год 6 мес. назад | Торрент скачан:113 раз
Скачать  

17-07-2018 05:39 Семья победителей Скачать торрент  

Семья победителей / Family of Winners / Dian di lian meng
Год выпуска: 2017
Страна: Китай
Жанр: Комедия, фантастика
Продолжительность: 01:37:12
Перевод: Любительский (многоголосый) [Синема УС]
Субтитры: Присутствуют (Китайские,Английские)

Режиссер: Уэйн Ван

rating

В ролях: Юй Юэ, Бай Чжицзе, Лу Эньцзе, Цзи Сяобин, Ван Юэсинь, Сьюки Пань, Фан Цзыгэ

Описание: Главная героиня в прошлом была отличным кибер-спортсменом. Она решает набрать команду новичком и принять участие в национальной лиге «Антарктический город». Но кого она смогла найти: красавчик, мажор, домохозяйка и трус - это обычные нубы. Чтобы их научить играть и создать сыгранную команду, нужен хороший тренер.

Качество: WEB-DLRip
Формат: AVI
Видео кодек: XviD
Аудио кодек: AC3
Видео: XviD, 720x304 , 23.9fps, 1620 Kbps
Аудио#1: AC3 , 2 ch , 48 kHz , 384 kbps
Общее
Полное имя : DFamily Of Winners.2017.P.WEB_DLRip.14OOMB.avi
Формат : AVI
Формат/Информация : Audio Video Interleave
Размер файла : 1,37 Гбайт
Продолжительность : 1 ч. 37 м.
Общий поток : 2013 Кбит/сек
Программа кодирования : VirtualDubMod 1.5.10.2 (build 2540/release)
Библиотека кодирования : VirtualDubMod build 2540/release

Видео
Идентификатор : 0
Формат : MPEG-4 Visual
Профиль формата : Advanced Simple@L5
Параметр BVOP формата : 2
Параметр QPel формата : Нет
Параметр GMC формата : Без точки перехода
Параметр матрицы формата : Выборочная
Идентификатор кодека : XVID
Идентификатор кодека/Подсказка : XviD
Продолжительность : 1 ч. 37 м.
Битрейт : 1620 Кбит/сек
Ширина : 720 пикселей
Высота : 304 пикселя
Соотношение сторон : 2,35:1
Частота кадров : 23,976 кадра/сек
Цветовое пространство : YUV
Субдискретизация насыщенности : 4:2:0
Битовая глубина : 8 бит
Тип развёртки : Прогрессивная
Метод сжатия : С потерями
Бит/(Пиксели*Кадры) : 0.309
Размер потока : 1,10 Гбайт (80%)
Библиотека кодирования : XviD 1.2.1 (UTC 2008-12-04)

Аудио
Идентификатор : 1
Формат : AC-3
Формат/Информация : Audio Coding 3
Расширение режима : CM (complete main)
Параметр Endianness формата : Big
Идентификатор кодека : 2000
Продолжительность : 1 ч. 37 м.
Вид битрейта : Постоянный
Битрейт : 384 Кбит/сек
Каналы : 2 канала
Расположение каналов : Front: L R
Частота : 48,0 КГц
Битовая глубина : 16 бит
Метод сжатия : С потерями
Размер потока : 267 Мбайт (19%)
Выравнивание : Разделение по промежуткам
Продолжительность промежутка : 42 мс. (1,00 видеокадр)
Время предзагрузки промежутка : 500 мс.

pb.wtf



Скачать Семья победителей через торрент https://a.radikal.ru/a33/1807/e1/39261a35d907.jpg Скачать фильм Семья победителей через торрент бесплантно в хорошем качестве Описание: Главная героиня в прошлом была отличным кибер-спортсменом. Она решает набрать команду новичком и принять участие в национальной ... 8.2 10 5
Торрент: Зарегистрирован [2018-07-17 05:39] · скачан: 113 раз
Статус: T временная
Размер: 1.37 GB
Как cкачать? Как скачать Семья победителей через торрент | qTorrent

28-11-2019 20:33  

Отключить всю рекламу на сайте

    Дорогой пользователь! Огромная просьба, поблагодарите релизера, оцените раздачу и оставьте свои комментарий, если Вы скачали Семья победителей через торрент бесплатно! Внесите свою лепту в развитие PiratBit!
    Комментировать посты могут только пользователи прошедшие не сложную регистрацию
    Показать сообщения:    

    Семья победителей через торрент
    Скачать бесплатно Семья победителей
    Семья победителей скачать торрент
    Семья победителей смотреть онлайн
    Cкачать фильм Семья победителей бесплатно
    Семья победителей скачать торрент в хорошем качестве
    Семья победителей смотреть онлайн бесплатно в хорошем качестве


    Вы не можете начинать темы
    Вы не можете отвечать на сообщения
    Вы не можете редактировать свои сообщения
    Вы не можете удалять свои сообщения
    Вы не можете голосовать в опросах
    Вы не можете прикреплять файлы к сообщениям
    Вы можете скачивать файлы