Всегда рабочее зеркало без VPN и Proxy просто перед .vidak.icu напиши любое слово или цифру, Пример http://zsrf.vidak.icu

MVO

2 сезон

2 сезон

1

1 сезон

iTunes

2 сезон

13

1 сезон

Распродажа

pack

Рекомендуем

Пиратка

30

ВАЖНО

RePack

MK11

RePack

jed

RePack

fifa19

RePack

RDR2

RePack

NEED FOR SPEED™ PAYBACK

Кинопоиск HD

6 сезон

 Острые козырьки 6 сезон

Все сериалы

все сериалы на PB.wtf

RePack

FAR CRY 5

Anonymous, нам критически не хватает 5601 руб. на оплату серверов и переферии за Апрель, помоги нам пожалуйста, вся надежда только на тебя. В благодарность мы отключим тебе всю рекламу на сайте!

×
  
Magnet ссылка

Омерзительная восьмёрка / The Hateful Eight (Квентин Тарантино) [2015, триллер, криминал, детектив, вестерн, BDRip-HEVC 1080p, (10bit)] 4xAVO+DUB [Лицензия] pb.wtf

Омерзительная восьмёрка через торрент pb.wtf

Размер: 10.72 GB | Добавлен: 3 года 10 мес. назад | Торрент скачан:475 раз
Смотреть онлайн Омерзительная восьмёрка | Скачать    Ребята, помогите собрать деньги на оплату серверов!!!

17-07-2018 08:37 Омерзительная восьмёрка Скачать торрент  

Омерзительная восьмёрка / The Hateful Eight
Год выпуска: 2015
Страна: США
Жанр: триллер, драма, криминал, детектив, вестерн
Продолжительность: 02:47:45
Перевод: Дубляж | Лицензия, авторский одноголосый
Субтитры:Русские (форсированные, полные), English

Режиссер: Квентин Тарантино

rating

В ролях:

Курт Рассел, Сэмюэл Л. Джексон, Тим Рот, Майкл Мэдсен, Дженнифер Джейсон Ли, Уолтон Гоггинс, Демиан Бишир, Брюс Дерн, Джеймс Паркс, Дэна Гурье

Описание:

США после Гражданской войны. Легендарный охотник за головами Джон Рут по кличке Вешатель конвоирует заключенную. По пути к ним прибиваются еще несколько путешественников. Снежная буря вынуждает компанию искать укрытие в лавке на отшибе, где уже расположилось весьма пестрое общество: генерал конфедератов,



Качество: BDRip-HEVC 1080p
Формат: MKV

Видео: 1920x698 (2.751), 5303 Кбит/сек, 0.165 бит/(Пиксели*Кадры), 23.976 кадр/сек, (Main10@L.4.1@High), 10 бит
Аудио#1: Русская, AC3 640 Кбит/сек, 6 канала(ов),16bit 48,0 КГц Дублированный (Blu-Ray Rus)
Аудио#2: Русская, AC3 640 Кбит/сек, 6 канала(ов),16bit 48,0 КГц AVO Гаевский
Аудио#3: Русская, AC3 640 Кбит/сек, 6 канала(ов),16bit 48,0 КГц AVO Матвеев
Аудио#4: Русская, AC3 640 Кбит/сек, 6 канала(ов),16bit 48,0 КГц AVO Сербин
Аудио#5: Русская, AC3 640 Кбит/сек, 6 канала(ов),16bit 48,0 КГц AVO Есарев
Аудио#6: English, AC3 640 Кбит/сек, 6 канала(ов),16bit 48,0 КГц
скриншот  скриншот  скриншот  скриншот  скриншот  

General
Unique ID : 78359380190372047260938701329385386520 (0x3AF377B96EBB884AD84AA5CBBD23F218)
Complete name : F:HEVCThe Hateful Eight (2015) BDRip 1080p [HEVC] 10Bit_Cthulhu.mkv
Format : Matroska
Format version : Version 4 / Version 2
File size : 10.7 GiB
Duration : 2 h 47 min
Overall bit rate : 9 146 kb/s
Movie name : The Hateful Eight (2015)_rip_by_Cthulhu
Encoded date : UTC 2018-07-16 20:39:12
Writing application : mkvmerge v24.0.0 ('Beyond The Pale') 64-bit
Writing library : libebml v1.3.6 + libmatroska v1.4.9
Cover : Yes
Attachments : cover.jpg

Video
ID : 1
Format : HEVC
Format/Info : High Efficiency Video Coding
Format profile : Main 10@L4.1@High
Codec ID : V_MPEGH/ISO/HEVC
Duration : 2 h 47 min
Bit rate : 5 303 kb/s
Width : 1 920 pixels
Height : 698 pixels
Display aspect ratio : 2.751
Frame rate mode : Constant
Frame rate : 23.976 (24000/1001) FPS
Color space : YUV
Chroma subsampling : 4:2:0
Bit depth : 10 bits
Bits/(Pixel*Frame) : 0.165
Stream size : 6.21 GiB (58%)
Writing library : x265 2.7+340-aa9102400f24:[Windows][GCC 8.0.1][64 bit] 10bit
Encoding settings : cpuid=1049583 / frame-threads=4 / numa-pools=4 / wpp / no-pmode / no-pme / no-psnr / no-ssim / log-level=2 / input-csp=1 / input-res=1920x698 / interlace=0 / total-frames=241334 / level-idc=41 / high-tier=1 / uhd-bd=0 / ref=5 / no-allow-non-conformance / no-repeat-headers / annexb / no-aud / no-hrd / info / hash=0 / no-temporal-layers / open-gop / min-keyint=23 / keyint=240 / gop-lookahead=0 / bframes=10 / b-adapt=2 / b-pyramid / bframe-bias=0 / rc-lookahead=40 / lookahead-slices=0 / scenecut=40 / radl=0 / no-intra-refresh / ctu=64 / min-cu-size=8 / rect / amp / max-tu-size=32 / tu-inter-depth=3 / tu-intra-depth=3 / limit-tu=4 / rdoq-level=1 / dynamic-rd=0.00 / no-ssim-rd / signhide / no-tskip / nr-intra=0 / nr-inter=0 / no-constrained-intra / no-strong-intra-smoothing / max-merge=3 / limit-refs=2 / limit-modes / me=3 / subme=7 / merange=57 / temporal-mvp / weightp / weightb / no-analyze-src-pics / deblock=-3:-3 / no-sao / no-sao-non-deblock / rd=4 / no-early-skip / rskip / no-fast-intra / no-tskip-fast / no-cu-lossless / no-b-intra / no-splitrd-skip / rdpenalty=0 / psy-rd=2.00 / psy-rdoq=1.00 / no-rd-refine / no-lossless / cbqpoffs=0 / crqpoffs=0 / rc=crf / crf=18.0 / qcomp=0.65 / qpstep=4 / stats-write=0 / stats-read=0 / vbv-maxrate=50000 / vbv-bufsize=50000 / vbv-init=0.9 / crf-max=0.0 / crf-min=0.0 / ipratio=1.10 / pbratio=1.00 / aq-mode=1 / aq-strength=1.00 / cutree / zone-count=0 / no-strict-cbr / qg-size=32 / no-rc-grain / qpmax=69 / qpmin=0 / no-const-vbv / sar=1 / overscan=0 / videoformat=5 / range=0 / colorprim=1 / transfer=1 / colormatrix=1 / chromaloc=0 / display-window=0 / max-cll=0,0 / min-luma=0 / max-luma=1023 / log2-max-poc-lsb=8 / vui-timing-info / vui-hrd-info / slices=1 / no-opt-qp-pps / no-opt-ref-list-length-pps / no-multi-pass-opt-rps / scenecut-bias=0.05 / no-opt-cu-delta-qp / no-aq-motion / no-hdr / no-hdr-opt / no-dhdr10-opt / no-idr-recovery-sei / analysis-reuse-level=5 / scale-factor=0 / refine-intra=0 / refine-inter=0 / refine-mv=0 / no-limit-sao / ctu-info=0 / no-lowpass-dct / refine-mv-type=0 / copy-pic=1 / max-ausize-factor=1.0 / no-dynamic-refine / no-single-sei
Language : English
Default : Yes
Forced : No
Color range : Limited
Color primaries : BT.709
Transfer characteristics : BT.709
Matrix coefficients : BT.709

Audio #1
ID : 2
Format : AC-3
Format/Info : Audio Coding 3
Format settings, Endianness : Big
Codec ID : A_AC3
Duration : 2 h 47 min
Bit rate mode : Constant
Bit rate : 640 kb/s
Channel(s) : 6 channels
Channel positions : Front: L C R, Side: L R, LFE
Sampling rate : 48.0 kHz
Frame rate : 31.250 FPS (1536 SPF)
Bit depth : 16 bits
Compression mode : Lossy
Stream size : 768 MiB (7%)
Title : Dub Blu-ray RUS
Language : Russian
Service kind : Complete Main
Default : Yes
Forced : No

Audio #2
ID : 3
Format : AC-3
Format/Info : Audio Coding 3
Format settings, Endianness : Big
Codec ID : A_AC3
Duration : 2 h 47 min
Bit rate mode : Constant
Bit rate : 640 kb/s
Channel(s) : 6 channels
Channel positions : Front: L C R, Side: L R, LFE
Sampling rate : 48.0 kHz
Frame rate : 31.250 FPS (1536 SPF)
Bit depth : 16 bits
Compression mode : Lossy
Stream size : 768 MiB (7%)
Title : AVO Гаевский
Language : Russian
Service kind : Complete Main
Default : No
Forced : No

Audio #3
ID : 4
Format : AC-3
Format/Info : Audio Coding 3
Format settings, Endianness : Big
Codec ID : A_AC3
Duration : 2 h 47 min
Bit rate mode : Constant
Bit rate : 640 kb/s
Channel(s) : 6 channels
Channel positions : Front: L C R, Side: L R, LFE
Sampling rate : 48.0 kHz
Frame rate : 31.250 FPS (1536 SPF)
Bit depth : 16 bits
Compression mode : Lossy
Stream size : 768 MiB (7%)
Title : AVO Матвеев
Language : Russian
Service kind : Complete Main
Default : No
Forced : No

Audio #4
ID : 5
Format : AC-3
Format/Info : Audio Coding 3
Format settings, Endianness : Big
Codec ID : A_AC3
Duration : 2 h 47 min
Bit rate mode : Constant
Bit rate : 640 kb/s
Channel(s) : 6 channels
Channel positions : Front: L C R, Side: L R, LFE
Sampling rate : 48.0 kHz
Frame rate : 31.250 FPS (1536 SPF)
Bit depth : 16 bits
Compression mode : Lossy
Stream size : 768 MiB (7%)
Title : AVO Сербин
Language : Russian
Service kind : Complete Main
Default : No
Forced : No

Audio #5
ID : 6
Format : AC-3
Format/Info : Audio Coding 3
Format settings, Endianness : Big
Codec ID : A_AC3
Duration : 2 h 47 min
Bit rate mode : Constant
Bit rate : 640 kb/s
Channel(s) : 6 channels
Channel positions : Front: L C R, Side: L R, LFE
Sampling rate : 48.0 kHz
Frame rate : 31.250 FPS (1536 SPF)
Bit depth : 16 bits
Compression mode : Lossy
Stream size : 768 MiB (7%)
Title : AVO Есарев
Language : Russian
Service kind : Complete Main
Default : No
Forced : No

Audio #6
ID : 7
Format : AC-3
Format/Info : Audio Coding 3
Format settings, Endianness : Big
Codec ID : A_AC3
Duration : 2 h 47 min
Bit rate mode : Constant
Bit rate : 640 kb/s
Channel(s) : 6 channels
Channel positions : Front: L C R, Side: L R, LFE
Sampling rate : 48.0 kHz
Frame rate : 31.250 FPS (1536 SPF)
Bit depth : 16 bits
Compression mode : Lossy
Stream size : 768 MiB (7%)
Language : English
Service kind : Complete Main
Default : No
Forced : No

Text #1
ID : 8
Format : UTF-8
Codec ID : S_TEXT/UTF8
Codec ID/Info : UTF-8 Plain Text
Duration : 2 h 44 min
Bit rate : 2 b/s
Count of elements : 35
Stream size : 2.85 KiB (0%)
Title : Rus Forced
Language : Russian
Default : No
Forced : No

Text #2
ID : 9
Format : UTF-8
Codec ID : S_TEXT/UTF8
Codec ID/Info : UTF-8 Plain Text
Duration : 2 h 38 min
Bit rate : 93 b/s
Count of elements : 1705
Stream size : 109 KiB (0%)
Title : Rus Full
Language : Russian
Default : No
Forced : No

Text #3
ID : 10
Format : UTF-8
Codec ID : S_TEXT/UTF8
Codec ID/Info : UTF-8 Plain Text
Duration : 2 h 38 min
Bit rate : 62 b/s
Count of elements : 2633
Stream size : 72.3 KiB (0%)
Title : Eng Full
Language : English
Default : No
Forced : No

Menu
00:00:00.000 : :Chapter 1
00:04:33.523 : :Chapter 2
00:11:36.111 : :Chapter 3
00:22:01.361 : :Chapter 4
00:35:02.431 : :Chapter 5
00:43:31.900 : :Chapter 6
00:52:12.211 : :Chapter 7
00:59:04.498 : :Chapter 8
01:08:30.314 : :Chapter 9
01:16:10.856 : :Chapter 10
01:25:18.445 : :Chapter 11
01:35:06.492 : :Chapter 12
01:42:20.175 : :Chapter 13
01:50:33.335 : :Chapter 14
01:59:32.497 : :Chapter 15
02:06:43.052 : :Chapter 16
02:13:26.622 : :Chapter 17
02:19:59.724 : :Chapter 18
02:24:17.022 : :Chapter 19
02:34:08.111 : :Chapter 20
02:39:38.025 : :Chapter 21
02:43:22.751 : :Chapter 22

pb.wtf



Скачать Омерзительная восьмёрка через торрент http://img11.lostpic.net/2018/07/16/5bb35ca95fdb63fbe5d0f7ef48210013.jpg Скачать, смотреть онлайн Омерзительная восьмёрка бесплантно в хорошем качестве Описание: США после Гражданской войны. Легендарный охотник за головами Джон Рут по кличке Вешатель конвоирует заключенную. По пути к ним ... 9.1 10 15
Info! Золотая раздача, скачанное не засчитывается.
Торрент: Зарегистрирован [2018-07-17 08:37] · скачан: 475 раз
Статус: √ проверено
Размер: 10.72 GB
Как cкачать? Как скачать Омерзительная восьмёрка через торрент | UTorrent

% Раздел Тема Автор DL S | L
Фильмы (Blu-ray, BD-Remux, HDDVD) [ 65.73 GB ] Омерзительная восьмерка / The Hateful Eight [2015 BDRemux 1080p] DUB + 6xAVO sheker187 Скачать
1 | 0
Фильмы [HD 720p, 1080p] (Хороший звук DUB, MVO) [ 15.52 GB ] Омерзительная восьмерка / The Hateful Eight [2015 BDRip 720p] 2xDUB+MVO+3xAVO bober100 Скачать
1 | 0

28-11-2019 20:33  

Отключить всю рекламу на сайте

    Дорогой пользователь! Огромная просьба, поблагодарите релизера, оцените раздачу и оставьте свои комментарий, если Вы скачали Омерзительная восьмёрка через торрент бесплатно!
    Комментировать посты могут только пользователи прошедшие не сложную регистрацию
    Показать сообщения:    

    Омерзительная восьмёрка через торрент
    Скачать бесплатно Омерзительная восьмёрка
    Омерзительная восьмёрка скачать торрент
    Омерзительная восьмёрка смотреть онлайн
    Cкачать фильм Омерзительная восьмёрка бесплатно
    Омерзительная восьмёрка скачать торрент в хорошем качестве
    Омерзительная восьмёрка смотреть онлайн бесплатно в хорошем качестве


    Вы не можете начинать темы
    Вы не можете отвечать на сообщения
    Вы не можете редактировать свои сообщения
    Вы не можете удалять свои сообщения
    Вы не можете голосовать в опросах
    Вы не можете прикреплять файлы к сообщениям
    Вы можете скачивать файлы