Ссылка на приватное зеркало нашего сайта всего за 1$. Внимание количество ограничено!!!

2 сезон

iTunes

1 сезон

1

2 сезон

2 сезон

iTunes

1 сезон

RePack

30

Новинка

ВАЖНО

ИГРА 18+

pack

RePack

MK11
pack

Забери бонус

RePack

jed

!!Акция!!

Alien_Rage

RePack

fifa19

RePack

Assassins Creed: Odyssey

RePack

NEED FOR SPEED™ PAYBACK

4 сезон

9 сезон

Бесстыжие 9 сезон

Все сериалы

все сериалы на PB.wtf

RePack

FAR CRY 5
  

Странный ангел / Strange Angel / Сезон: 1 / Серии: 1-10 из 10 (Дэвид Лоури) [2018, фантастика, драма, WEB-DL 720p] [MVO] (AlexFilm) pb.wtf

Странный ангел через торрент pb.wtf

Размер: 13.27 GB | Добавлен: 1 год 3 мес. назад | Торрент скачан:0 раз
Скачать  

17-07-2018 16:22 Странный ангел Скачать торрент  

Странный ангел / Strange Angel Год выпуска: 2018
Страна: США
Жанр: фантастика, драма
Продолжительность: ~00:55:00
Озвучание: Профессиональное (многоголосое закадровое) (AlexFilm)

Режиссеры: Дэвид Лоури, Нельсон МакКормик, Бен Уитли

В ролях: Питер Марк Кендалл, Джек Рейнор, Майкл Гэстон, Дэн Донохью, Рэнди Оглсби, Роб Забрески, Фил Абрамс, Курт Ёла, Laine Neil, Коллин Фой и др.

Описание: Джек Парсонс - знаменитый инженер, химик и оккультист. В 1930-х молодой человек, с детства увлекавшийся реактивным движением, начал работать уборщиком на химическом заводе в Лос-Анджелесе. Вскоре благодаря врожденному таланту и амбициям Парсонс смог положить начало американскому ракетостроению и стал одним из ключевых основателей Лаборатории реактивного движения. Однако интересы Парсона не ограничивались химией. В начале 1940-х, после кратковременного периода увлечения марксизмом, Парсонс заинтересовался учениями английского оккультиста Алистера Кроули и вместе с женой Хелен присоединился к калифорнийскому отделению ордена восточных тамплиеров.

Релиз:

Перевод: Наталья Турдакова
Монтаж и сведение звука: Михаил Шорыгин
Роли озвучивали:
Екатерина Муравицкая
Алёна Соколова (3 серия и далее)
Константин Федосеев
Кирилл Патрино
Алексей Никитин
Михаил Федосеев



Качество: WEB-DL 720p
Формат: MKV
Видео: 1280x672, 24 fps, XviD ~3000 kbps avg, 0.145 bit/pixel
Аудио Rus: 48 kHz, AC3 Dolby Digital, 3/2 (L,C,R,l,r) + LFE ch, ~384.00 kbps
Аудио Eng: 48 kHz, AC3 Dolby Digital, 3/2 (L,C,R,l,r) + LFE ch, ~384.00 kbps
Субтитры: нет


скриншот  скриншот  скриншот  
Формат : Matroska
Версия формата : Version 4 / Version 2
Размер файла : 1,43 Гбайт
Продолжительность : 54 м. 27 с.
Общий поток : 3769 Кбит/сек
Название фильма : Strange Angel 1x01 @ AlexFilm
Дата кодирования : UTC 2018-06-24 14:50:20
Программа кодирования : mkvmerge v7.9.0 ('Birds') 64bit
Библиотека кодирования : libebml v1.3.1 + libmatroska v1.4.2

Видео
Идентификатор : 1
Формат : AVC
Формат/Информация : Advanced Video Codec
Профиль формата : High@L4.1
Параметр CABAC формата : Да
Параметр ReFrames формата : 4 кадра
Идентификатор кодека : V_MPEG4/ISO/AVC
Продолжительность : 54 м. 27 с.
Битрейт : 3000 Кбит/сек
Ширина : 1280 пикселей
Высота : 672 пикселя
Соотношение сторон : 1,905
Режим частоты кадров : Постоянный
Частота кадров : 23,976 (24000/1001) кадра/сек
Цветовое пространство : YUV
Субдискретизация насыщенности : 4:2:0
Битовая глубина : 8 бит
Тип развёртки : Прогрессивная
Бит/(Пиксели*Кадры) : 0.145
Размер потока : 1,14 Гбайт (80%)
Библиотека кодирования : x264 core 130 r2273 b3065e6
Настройки программы : cabac=1 / ref=3 / deblock=1:0:0 / analyse=0x3:0x113 / me=hex / subme=7 / psy=1 / psy_rd=1.00:0.00 / mixed_ref=1 / me_range=16 / chroma_me=1 / trellis=1 / 8x8dct=1 / cqm=0 / deadzone=21,11 / fast_pskip=1 / chroma_qp_offset=-2 / threads=6 / lookahead_threads=1 / sliced_threads=0 / nr=0 / decimate=1 / interlaced=0 / bluray_compat=0 / constrained_intra=0 / bframes=3 / b_pyramid=2 / b_adapt=1 / b_bias=0 / direct=1 / weightb=1 / open_gop=0 / weightp=2 / keyint=250 / keyint_min=23 / scenecut=40 / intra_refresh=0 / rc_lookahead=40 / rc=2pass / mbtree=1 / bitrate=3000 / ratetol=1.0 / qcomp=0.60 / qpmin=0 / qpmax=69 / qpstep=4 / cplxblur=20.0 / qblur=0.5 / ip_ratio=1.40 / aq=1:1.00
Язык : English
Default : Да
Forced : Нет

Аудио #1
Идентификатор : 2
Формат : AC-3
Формат/Информация : Audio Coding 3
Расширение режима : CM (complete main)
Параметр Endianness формата : Big
Идентификатор кодека : A_AC3
Продолжительность : 54 м. 27 с.
Вид битрейта : Постоянный
Битрейт : 384 Кбит/сек
Каналы : 6 каналов
Расположение каналов : Front: L C R, Side: L R, LFE
Частота : 48,0 КГц
Частота кадров : 31,250 кадров/сек (1536 spf)
Метод сжатия : С потерями
Размер потока : 150 Мбайт (10%)
Заголовок : DD5.1 AlexFilm
Язык : Russian
Default : Да
Forced : Нет

Аудио #2
Идентификатор : 3
Формат : AC-3
Формат/Информация : Audio Coding 3
Расширение режима : CM (complete main)
Параметр Endianness формата : Big
Идентификатор кодека : A_AC3
Продолжительность : 54 м. 27 с.
Вид битрейта : Постоянный
Битрейт : 384 Кбит/сек
Каналы : 6 каналов
Расположение каналов : Front: L C R, Side: L R, LFE
Частота : 48,0 КГц
Частота кадров : 31,250 кадров/сек (1536 spf)
Метод сжатия : С потерями
Размер потока : 150 Мбайт (10%)
Заголовок : DD5.1 Original
Язык : English
Default : Нет
Forced : Нет
pb.wtf



Скачать Странный ангел через торрент http://i104.fastpic.ru/big/2018/0624/b5/e1a8430242b9d14a612d7a6cbb6036b5.jpg Скачать фильм Странный ангел через торрент бесплантно в хорошем качестве Описание: Джек Парсонс - знаменитый инженер, химик и оккультист. В 1930-х молодой человек, с детства увлекавшийся реактивным движением, ... 10 10 1
Торрент: Зарегистрирован [2019-07-26 14:20] · скачан: 0 раз
Статус: √ проверено
Размер: 13.27 GB
Как cкачать? Как скачать Странный ангел через торрент | qTorrent

% Раздел Тема Автор DL S | L
Зарубежные сериалы [ 13.44 GB ] Странный ангел / Strange Angel / Сезон: 2 / Серии: 1-7 из 7 [2019 WEBRip 1080p] [MVO] killermax2013 Скачать
1 | 0
Зарубежные сериалы [ 6.01 GB ] Странный ангел / Strange Angel / Сезон: 1 / Серии: 1-10 из 10 [2018 WEBRip] [MVO] killermax2013 Скачать
1 | 0
Зарубежные сериалы [ 16.86 GB ] Странный ангел / Strange Angel / Сезон: 1 / Серии: 1-10 из 10 [2018 WEBRip 720p] [MVO] killermax2013 Скачать
1 | 0
Зарубежные сериалы [ 15.96 GB ] Странный ангел / Strange Angel / Сезон: 1 / Серии: 1-10 из 10 [2018 WEB-DL 720p] MVO [LostFilm] bober100 Скачать
1 | 0
Зарубежные сериалы [ 5.82 GB ] Странный ангел / Strange Angel / Сезон: 1 / Серии: 1-10 из 10 [2018 WEB-DLRip] MVO [AlexFilm] bober100 Скачать
1 | 0
Зарубежные сериалы [ 15.96 GB ] Странный ангел / Strange Angel / Сезон: 1 / Серии: 1-10 из 10 [2018 WEB-DL 720p] MVO [NewStudio] bober100 Скачать
1 | 0
Зарубежные сериалы [ 9.84 GB ] Странный ангел / Strange Angel / Сезон: 1 / Серии: 1-10 из 10 [2018 WEB-DLRip] MVO [NewStudio] bober100 Скачать
1 | 0

28-11-2019 20:33  

Отключить всю рекламу на сайте

    Дорогой пользователь! Огромная просьба, поблагодарите релизера, оцените раздачу и оставьте свои комментарий, если Вы скачали Странный ангел через торрент бесплатно! Внесите свою лепту в развитие PiratBit!
    Комментировать посты могут только пользователи прошедшие не сложную регистрацию
    Показать сообщения:    

    Странный ангел через торрент
    Скачать бесплатно Странный ангел
    Странный ангел скачать торрент
    Странный ангел смотреть онлайн
    Cкачать фильм Странный ангел бесплатно
    Странный ангел скачать торрент в хорошем качестве
    Странный ангел смотреть онлайн бесплатно в хорошем качестве


    Вы не можете начинать темы
    Вы не можете отвечать на сообщения
    Вы не можете редактировать свои сообщения
    Вы не можете удалять свои сообщения
    Вы не можете голосовать в опросах
    Вы не можете прикреплять файлы к сообщениям
    Вы можете скачивать файлы