новый адрес
Ссылка на приватное зеркало всего за 1$. Внимание количество ограничено!!!

iTunes

1+1

iTunes

мы

WEB-DL

1

iTunes

Чернобыль

iTunes

Ральф против интернета

Лицензия

ПШазам

Лицензия

Оно 2

Лицензия

30
pack

Вам бонус

ВАЖНО

!!Акция!!

Alien_RageХит недели

RePack

Resident Evil 21

ИГРА 18+

pack

RePack

jed

!!Акция!!

Alien_Rage

RePack

fifa19

RePack

Assassins Creed: Odyssey

RePack

NEED FOR SPEED™ PAYBACK

3 сезон

9 сезон

Бесстыжие 9 сезон

Все сериалы

все сериалы на PB.wtf

RePack

FAR CRY 5
Ребята, катастрофически не хватает 1900р. для оплаты серверов за Октябрь (всвязи с блокировками трафик упал в 3 раза), 1-2р., выручайте.
  

Мария Магдалина / Mary Magdalene (Гарт Дэвис) [2018, драма, BDRip-AVC] Дубляж [Лицензия] - ExKinoRay pb.wtf

Мария Магдалина через торрент pb.wtf

Раздают: 9 [ 0 KB/s ] Качают: 1 [ 0 KB/s ]
Размер: 1.46 GB | Добавлен: 1 год 4 мес. назад | Торрент скачан:161 раз
Скачать  

18-07-2018 04:04 Мария Магдалина Скачать торрент  

Информация о фильме
Название: Мария Магдалина
Оригинальное название: Mary Magdalene
Год выпуска: 2018
Жанр: Драма
Режиссер: Гарт Дэвис
В ролях: Руни Мара, Хоакин Феникс, Чиветел Эджиофор, Тахар Рахим, Ариана Лабед, Дени Меноше, Лубна Азабаль, Чеки Карио, Чарльз Бабалола, Тауфик Бархом

Описание: Рассказ об одной из самых загадочных личностей в мировой истории. Бросив вызов предрассудкам своего времени, Мария оставляет близких и присоединяется к группе единомышленников, лидером которых является Иисус из Назарета. Здесь она найдет свое место и окажется на судьбоносной дороге в Иерусалим.

rating

Страна: Великобритания, США, Австралия
Студия: Film4, Porchlight Films Pty. Ltd.
Продолжительность: 01:59:48
Перевод: Дублированный | Лицензия BD EUR

Формат: MKV
Качество: BDRip-AVC
Видео: MPEG-4 AVC, 720x328 (2.2:1), 23.976 fps, ~ 1290 kbps avg, 0.228 bit/pixel
Звук: 48 kHz, AC3 Dolby Digital, 5/1 ch, ~448 kbps avg
Субтитры: Русские (форс., полные), английские (полные)
General
Unique ID : 251952001608858085127777336996614077758 (0xBD8C30C0FB88A525AC2AD29311AF7D3E)
Complete name : D:\Mary.Magdalene.2018.BDRip.AVC.ExKinoRay.mkv
Format : Matroska
Format version : Version 2
File size : 1.46 GiB
Duration : 1 h 59 min
Overall bit rate : 1 740 kb/s
Movie name : Mary Magdalene (2018) from ExKinoRay
Encoded date : UTC 2018-07-17 21:10:40
Writing application : mkvmerge v5.6.0 ('Kenya Kane') built on May 27 2012 16:44:04
Writing library : libebml v1.2.3 + libmatroska v1.3.0

Video
ID : 1
Format : AVC
Format/Info : Advanced Video Codec
Format profile : High@L4.1
Format settings, CABAC : Yes
Format settings, ReFrames : 12 frames
Codec ID : V_MPEG4/ISO/AVC
Duration : 1 h 59 min
Bit rate : 1 290 kb/s
Width : 720 pixels
Height : 328 pixels
Display aspect ratio : 2.2:1
Frame rate mode : Constant
Frame rate : 23.976 (24000/1001) FPS
Color space : YUV
Chroma subsampling : 4:2:0
Bit depth : 8 bits
Scan type : Progressive
Bits/(Pixel*Frame) : 0.228
Stream size : 1.05 GiB (72%)
Title : Enigma
Writing library : x264 core 148 r2638 7599210
Encoding settings : cabac=1 / ref=12 / deblock=1:-2:-2 / analyse=0x3:0x113 / me=umh / subme=11 / psy=1 / psy_rd=1.00:0.05 / mixed_ref=1 / me_range=32 / chroma_me=1 / trellis=2 / 8x8dct=1 / cqm=0 / deadzone=21,11 / fast_pskip=0 / chroma_qp_offset=-3 / threads=10 / lookahead_threads=2 / sliced_threads=0 / nr=0 / decimate=1 / interlaced=0 / bluray_compat=0 / constrained_intra=0 / bframes=14 / b_pyramid=2 / b_adapt=2 / b_bias=0 / direct=3 / weightb=1 / open_gop=0 / weightp=2 / keyint=240 / keyint_min=23 / scenecut=40 / intra_refresh=0 / rc_lookahead=40 / rc=2pass / mbtree=0 / bitrate=1290 / ratetol=1.0 / qcomp=0.60 / qpmin=0 / qpmax=51 / qpstep=4 / cplxblur=20.0 / qblur=0.5 / vbv_maxrate=50000 / vbv_bufsize=62500 / nal_hrd=none / filler=0 / ip_ratio=1.40 / pb_ratio=1.30 / aq=2:0.90
Default : Yes
Forced : No
Color range : Limited
Color primaries : BT.709
Transfer characteristics : BT.709
Matrix coefficients : BT.709

Audio
ID : 2
Format : AC-3
Format/Info : Audio Coding 3
Mode extension : CM (complete main)
Format settings, Endianness : Big
Codec ID : A_AC3
Duration : 1 h 59 min
Bit rate mode : Constant
Bit rate : 448 kb/s
Channel(s) : 6 channels
Channel positions : Front: L C R, Side: L R, LFE
Sampling rate : 48.0 kHz
Frame rate : 31.250 FPS (1536 spf)
Compression mode : Lossy
Stream size : 384 MiB (26%)
Title : Dub (Blu-ray EUR)
Language : Russian
Default : Yes
Forced : No

Text #1
ID : 3
Format : UTF-8
Codec ID : S_TEXT/UTF8
Codec ID/Info : UTF-8 Plain Text
Title : Forced
Language : Russian
Default : Yes
Forced : No

Text #2
ID : 4
Format : UTF-8
Codec ID : S_TEXT/UTF8
Codec ID/Info : UTF-8 Plain Text
Title : Full
Language : Russian
Default : No
Forced : No

Text #3
ID : 5
Format : UTF-8
Codec ID : S_TEXT/UTF8
Codec ID/Info : UTF-8 Plain Text
Title : Full
Language : English
Default : No
Forced : No

Menu
00:00:00.000 : en:Chapter 01
00:06:50.076 : en:Chapter 02
00:12:28.289 : en:Chapter 03
00:19:45.642 : en:Chapter 04
00:23:35.747 : en:Chapter 05
00:31:02.402 : en:Chapter 06
00:37:16.609 : en:Chapter 07
00:44:48.435 : en:Chapter 08
00:50:57.846 : en:Chapter 09
00:55:42.756 : en:Chapter 10
01:01:55.837 : en:Chapter 11
01:09:28.330 : en:Chapter 12
01:13:55.013 : en:Chapter 13
01:16:31.336 : en:Chapter 14
01:24:27.562 : en:Chapter 15
01:29:15.516 : en:Chapter 16
01:33:58.758 : en:Chapter 17
01:39:33.801 : en:Chapter 18
01:44:51.368 : en:Chapter 19
01:53:24.881 : en:Chapter 20
Релиз от:

Автор релиза: pb.wtf



Скачать Мария Магдалина через торрент https://d.radikal.ru/d20/1807/ef/b688a633b189.png Скачать фильм Мария Магдалина через торрент бесплантно в хорошем качестве Описание: Рассказ об одной из самых загадочных личностей в мировой истории. Бросив вызов предрассудкам своего времени, Мария оставляет ... 9.5 10 8
Info! Золотая раздача, скачанное не засчитывается.
Торрент: Зарегистрирован [2018-07-18 04:04] · скачан: 161 раз
Статус: √ проверено
Размер: 1.46 GB
Как cкачать? Как скачать Мария Магдалина через торрент | qTorrent

28-11-2019 20:33  

Отключить всю рекламу на сайте

    Дорогой пользователь! Огромная просьба, поблагодарите релизера, оцените раздачу и оставьте свои комментарий, если Вы скачали Мария Магдалина через торрент бесплатно! Внесите свою лепту в развитие PiratBit!
    Комментировать посты могут только пользователи прошедшие не сложную регистрацию
    Показать сообщения:    

    Мария Магдалина через торрент
    Скачать бесплатно Мария Магдалина
    Мария Магдалина скачать торрент
    Мария Магдалина смотреть онлайн
    Cкачать фильм Мария Магдалина бесплатно
    Мария Магдалина скачать торрент в хорошем качестве
    Мария Магдалина смотреть онлайн бесплатно в хорошем качестве


    Вы не можете начинать темы
    Вы не можете отвечать на сообщения
    Вы не можете редактировать свои сообщения
    Вы не можете удалять свои сообщения
    Вы не можете голосовать в опросах
    Вы не можете прикреплять файлы к сообщениям
    Вы можете скачивать файлы