новый адрес пиратбит piratbit
Мега распродажа FORZA HORIZON 4 ULTIMATE+ВСЕ DLC+ОНЛАЙН всего за 499р. 349 руб. (супер цена). Внимание количество ограничено!!!

iTunes

1+1

iTunes

мы

iTunes

1

iTunes

Чернобыль

iTunes

Ральф против интернета

Лицензия

ПШазам

Лицензия

Игра престолов

Лицензия

30
pack

ВАЖНО

!!Акция!!

Alien_RageХит недели

RePack

Resident Evil 21

ИГРА 18+

pack

RePack

Metro:Exodus

!!Акция!!

Alien_Rage

RePack

fifa19

RePack

Assassins Creed: Odyssey

RePack

NEED FOR SPEED™ PAYBACK

3 сезон

9 сезон

Бесстыжие 9 сезон

Все сериалы

все сериалы на PB.wtf

RePack

FAR CRY 5
Ребята, катастрофически не хватает 1900р. для оплаты серверов за Октябрь (всвязи с блокировками трафик упал в 3 раза), 1-2р., выручайте.
  

Жизнь прошла мимо (Владимир Басов) [1958, СССР, драма, SATRip от AVP Studio] pb.wtf

Жизнь прошла мимо через торрент pb.wtf

Размер: 1.09 GB | Добавлен: 1 год 3 мес. назад | Торрент скачан:13 раз
Скачать  

18-07-2018 08:30 Жизнь прошла мимо Скачать торрент  

Жизнь прошла мимо
Страна: СССР
Производство: Мосфильм

Жанр: драма
Год выпуска: 1958
Продолжительность: 01:25:15

Перевод: Не требуется
Cубтитры: нет
Оригинальная аудиодорожка: русский

Режиссер: Владимир Басов

В ролях:
Григорий Гай, Лилия Толмачёва, Юрий Саранцев, Николай Боголюбов, Елена Понсова, Игорь Безяев, Виталий Беляков, Глеб Стриженов, Римма Шорохова, Анатолий Ведёнкин, Леонид Довлатов, Станислав Коренев, Елизавета Кузюрина, Леонид Марков, Фёдор Одиноков, Николай Парфёнов, Татьяна Мухина...
Об актёрах подробней

Описание:
Николай Смирнов - вор-рецидивист по кличке "Акула", бежав из исправительно-трудовой колонии, вернулся в родной город и стал разыскивать дружков по воровским делам. Но за это время друзья повзрослели и теперь не хотят вспоминать прошлое. Потеряв уверенность в своих силах, он приходит к своей бывшей подруге и видит, что она воспитывает их сына. Потрясенный, Акула возвращается отбывать положенный срок, но смерть настигает его в лесных зарослях у самой колонии...
Критика приняла фильм "в штыки". Чуть ли не впервые главным героем советской картины стал уголовник, причём - не исправившийся. К тому же советская жизнь в картине была показана в невероятно мрачных тонах.

Исходник: DVB
Качество видео: SATRip
Формат видео: AVI

Видео: 688x512 (4:3), 25,000 кадров/сек, XviD ~ 1625 kbps avg, 0.185 bit/pixel
Аудио: 48 kHz, Dolby Digital AC3 2.0, 192 kbps

Раздача от:
Общее
Полное имя : Zhizn.proshla.mimo.1960.SATRip_[New-team]_by_AVP_Studio.avi
Формат : AVI
Формат/Информация : Audio Video Interleave
Размер файла : 1,09 Гбайт
Продолжительность : 1 ч. 25 м.
Общий поток : 1827 Кбит/сек
Программа кодирования : VirtualDubMod 1.5.10.3 | www.virtualdub-fr.org || (build 2550/release)
Библиотека кодирования : VirtualDubMod build 2550/release

Видео
Идентификатор : 0
Формат : MPEG-4 Visual
Профиль формата : Advanced Simple@L5
Настройки формата : BVOP1 / Custom Matrix
Параметр BVOP формата : 1
Параметр QPel формата : Нет
Параметр GMC формата : Без точки перехода
Параметр матрицы формата : Выборочная
Идентификатор кодека : XVID
Идентификатор кодека/Подсказка : XviD
Продолжительность : 1 ч. 25 м.
Битрейт : 1625 Кбит/сек
Ширина : 688 пикселей
Высота : 512 пикселей
Соотношение сторон : 4:3
Частота кадров : 25,000 кадров/сек
Цветовое пространство : YUV
Субдискретизация насыщенности : 4:2:0
Битовая глубина : 8 бит
Тип развёртки : Прогрессивная
Метод сжатия : С потерями
Бит/(Пиксели*Кадры) : 0.185
Размер потока : 991 Мбайт (89%)
Библиотека кодирования : XviD 73

Аудио
Идентификатор : 1
Формат : AC-3
Формат/Информация : Audio Coding 3
Идентификатор кодека : 2000
Продолжительность : 1 ч. 25 м.
Вид битрейта : Постоянный
Битрейт : 192 Кбит/сек
Каналы : 2 канала
Расположение каналов : Front: L R
Частота : 48,0 КГц
Частота кадров : 31,250 кадров/сек (1536 SPF)
Битовая глубина : 16 бит
Метод сжатия : С потерями
Размер потока : 117 Мбайт (11%)
Выравнивание : Разделение по промежуткам
Продолжительность промежутка : 40 мс. (1,00 видеокадр)
Время предзагрузки промежутка : 500 мс
pb.wtf



Скачать Жизнь прошла мимо через торрент http://picplus.ru/img/1807/18/864a58bb.png Скачать фильм Жизнь прошла мимо через торрент бесплантно в хорошем качестве Описание:Николай Смирнов - вор-рецидивист по кличке "Акула", бежав из исправительно-трудовой колонии, вернулся в родной город и стал ... 5 10 1
Info! Золотая раздача, скачанное не засчитывается.
Торрент: Зарегистрирован [2018-07-18 08:30] · скачан: 13 раз
Статус: √ проверено
Размер: 1.09 GB
Как cкачать? Как скачать Жизнь прошла мимо через торрент | qTorrent

% Раздел Тема Автор DL S | L
Кино СССР [ 1.09 GB ] Жизнь прошла мимо [1958 СССР SATRip-AVC от AVP Studio] AVP Studio Скачать
1 | 0


>> Регистрируемся здесь <<






Отзывы и комментарии о схеме читаем и пишем здесь: ---> Отзывы и комментарии о схеме

Новые благодарочки в телеграм довольных пользователей:
скриншот   скриншот   скриншот   скриншот   скриншот
    Дорогой пользователь! Огромная просьба, поблагодарите релизера, оцените раздачу и оставьте свои комментарий, если Вы скачали Жизнь прошла мимо через торрент бесплатно! Внесите свою лепту в развитие PiratBit!
    Комментировать посты могут только пользователи прошедшие не сложную регистрацию
    Показать сообщения:    

    Жизнь прошла мимо через торрент
    Скачать бесплатно Жизнь прошла мимо
    Жизнь прошла мимо скачать торрент
    Жизнь прошла мимо смотреть онлайн
    Cкачать фильм Жизнь прошла мимо бесплатно
    Жизнь прошла мимо скачать торрент в хорошем качестве
    Жизнь прошла мимо смотреть онлайн бесплатно в хорошем качестве


    Вы не можете начинать темы
    Вы не можете отвечать на сообщения
    Вы не можете редактировать свои сообщения
    Вы не можете удалять свои сообщения
    Вы не можете голосовать в опросах
    Вы не можете прикреплять файлы к сообщениям
    Вы можете скачивать файлы