Ссылка на приватное зеркало всего за 1$. Внимание количество ограничено!!!

OK

1+1

iTunes

мы

OK

1

WEB-DLRip

Джокер

Пифагор

Ведьмак / The Witcher сериал

iTunes

ПШазам

ОК

Оно 2

iTunes

30
pack

Вам бонус

ВАЖНО

!!Акция!!

Alien_RageХит недели

RePack

Resident Evil 21

ИГРА 18+

pack

RePack

jed

RePack

fifa19

RePack

Assassins Creed: Odyssey

RePack

NEED FOR SPEED™ PAYBACK

4 сезон

9 сезон

Бесстыжие 9 сезон

Все сериалы

все сериалы на PB.wtf

RePack

FAR CRY 5
  

Пока никто не поранился / Before Someone Gets Hurt (Shane Barbanel) [2018 г., Ужасы, WEBRip 720p, Любительский (многоголосый)] pb.wtf

Пока никто не поранился через торрент pb.wtf

Размер: 2.07 GB | Добавлен: 1 год 6 мес. назад | Торрент скачан:90 раз
Скачать  

18-07-2018 14:25 Пока никто не поранился Скачать торрент  

Пока никто не поранился / Before Someone Gets Hurt
Год выпуска: 2018
Страна: США
Жанр: Ужасы
Продолжительность: 01:26:02
Перевод: Любительский (многоголосый) | HiWay Grope
Субтитры: Отсутствуют

Режиссер: Shane Barbanel

rating

В ролях: Даниэль Джордано, Патрик Вудалл, Jimmy Mason, Уилл Роджерс, Джулия Моррисон, Александра Туршен, Misti Dawn Garritano, Кэти Хенни, Майкл Уэлш, Аарон Саутер

Описание: Тим и его команда - восходящие звезды охоты за призраками. Одна вещь, которую они любят больше работы, - это хороший розыгрыш. Они начинают новое новое расследование в старом доме. Ребята не могут понять, являются ли эти события частью сложной мастер-аферы или там действительно живет нечто сверхъестественное. К сожалению, они не находят ответа, пока не станет слишком поздно.

Качество: WEBRip 720p
Формат: MKV
Видео кодек: AVC
Аудио кодек: AC3
Видео: AVC, 1280x712 , 23.9fps, 2993 Kbps
Аудио#1: AC3 , 6 ch , 48 kHz , 384 kbps
Общее
Уникальный идентификатор : 303424448362487048291455764356100481358 (0xE4456C5005CE8D3749310B32BE53614E)
Полное имя : D:Before.Someone.Gets.Hurt.2018.720p.WEBRip.HiWayGrope.mkv
Формат : Matroska
Версия формата : Version 4 / Version 2
Размер файла : 2,07 Гбайт
Продолжительность : 1 ч. 26 м.
Общий поток : 3446 Кбит/сек
Дата кодирования : UTC 2018-07-18 07:40:40
Программа кодирования : mkvmerge v21.0.0 ('Tardigrades Will Inherit The Earth') 64-bit
Библиотека кодирования : libebml v1.3.5 + libmatroska v1.4.8

Видео
Идентификатор : 1
Формат : AVC
Формат/Информация : Advanced Video Codec
Профиль формата : Main@L4.1
Параметр CABAC формата : Да
Параметр ReFrames формата : 4 кадра
Идентификатор кодека : V_MPEG4/ISO/AVC
Продолжительность : 1 ч. 26 м.
Битрейт : 2993 Кбит/сек
Ширина : 1280 пикселей
Высота : 712 пикселей
Соотношение сторон : 16:9
Режим частоты кадров : Постоянный
Частота кадров : 23,976 кадра/сек
Стандарт вещания : NTSC
Цветовое пространство : YUV
Субдискретизация насыщенности : 4:2:0
Битовая глубина : 8 бит
Тип развёртки : Прогрессивная
Бит/(Пиксели*Кадры) : 0.137
Размер потока : 1,80 Гбайт (87%)
Язык : English
Default : Да
Forced : Нет
Основные цвета : BT.709
Характеристики трансфера : BT.709
Коэффициенты матрицы : BT.709

Аудио
Идентификатор : 2
Формат : AC-3
Формат/Информация : Audio Coding 3
Расширение режима : CM (complete main)
Параметр Endianness формата : Big
Идентификатор кодека : A_AC3
Продолжительность : 1 ч. 26 м.
Вид битрейта : Постоянный
Битрейт : 384 Кбит/сек
Каналы : 6 каналов
Расположение каналов : Front: L C R, Side: L R, LFE
Частота : 48,0 КГц
Битовая глубина : 16 бит
Метод сжатия : С потерями
Размер потока : 236 Мбайт (11%)
Язык : Russian
Default : Да
Forced : Нет

pb.wtf



Скачать Пока никто не поранился через торрент https://a.radikal.ru/a39/1807/3a/65410c6b73a6.jpg Скачать фильм Пока никто не поранился через торрент бесплантно в хорошем качестве Описание: Тим и его команда - восходящие звезды охоты за призраками. Одна вещь, которую они любят больше работы, - это хороший розыгрыш. ... 8.2 10 5
Info! Золотая раздача, скачанное не засчитывается.
Торрент: Зарегистрирован [2018-07-18 14:25] · скачан: 90 раз
Статус: √ проверено
Размер: 2.07 GB
Как cкачать? Как скачать Пока никто не поранился через торрент | qTorrent

28-11-2019 20:33  

Отключить всю рекламу на сайте

    Дорогой пользователь! Огромная просьба, поблагодарите релизера, оцените раздачу и оставьте свои комментарий, если Вы скачали Пока никто не поранился через торрент бесплатно! Внесите свою лепту в развитие PiratBit!
    Комментировать посты могут только пользователи прошедшие не сложную регистрацию
    Показать сообщения:    

    Пока никто не поранился через торрент
    Скачать бесплатно Пока никто не поранился
    Пока никто не поранился скачать торрент
    Пока никто не поранился смотреть онлайн
    Cкачать фильм Пока никто не поранился бесплатно
    Пока никто не поранился скачать торрент в хорошем качестве
    Пока никто не поранился смотреть онлайн бесплатно в хорошем качестве


    Вы не можете начинать темы
    Вы не можете отвечать на сообщения
    Вы не можете редактировать свои сообщения
    Вы не можете удалять свои сообщения
    Вы не можете голосовать в опросах
    Вы не можете прикреплять файлы к сообщениям
    Вы можете скачивать файлы