Ссылка на приватное зеркало нашего сайта всего за 1$. Внимание количество ограничено!!!

2 сезон

iTunes

1 сезон

1

2 сезон

2 сезон

iTunes

1 сезон

RePack

30

Ultimate

ВАЖНО

ИГРА 18+

pack

RePack

MK11
pack

Забери бонус

RePack

jed

!!Акция!!

Alien_Rage

RePack

fifa19

RePack

Assassins Creed: Odyssey

RePack

NEED FOR SPEED™ PAYBACK

4 сезон

9 сезон

Бесстыжие 9 сезон

Все сериалы

все сериалы на PB.wtf

RePack

FAR CRY 5
  

За бортом / Overboard (Роб Гринберг) [2018, комедия, WEB-DL 1080p] DUB [iTunes] pb.wtf

За бортом через торрент pb.wtf

Размер: 4.13 GB | Добавлен: 2 года 4 мес. назад | Торрент скачан:1045 раз
Скачать  

19-07-2018 09:02 За бортом Скачать торрент  

За бортом / Overboard
««Она его сделала!»»

Год выпуска: 2018
Страна: США
Жанр: комедия

Продолжительность: 01:52:17
Перевод: Дублированный [iTunes]
Субтитры: английские (Full)
Режиссер: Роб Гринберг
В ролях:

Анна Фэрис (Kate), Ева Лонгория (Theresa), Эухенио Дербес (Leonardo), Джон Ханна (Colin), Свузи Кёрц (Grace), Эмили Мэддисон (Amanda), Джош Сегарра (Jason), Аливия Элин Линд (Olivia), Мэл Родригез (Bobby), Ханна Нордберг (Emily), Гари Чок (Dr. Fletcher), Селеста Циглер (Gorgeous Woman)
Описание:
Леонардо, капризный плейбой-миллионер, однажды вываливается за борт своей яхты. После падения он теряет память, попадает в больницу, а разносчица пиццы Кейт, страстно желая отомстить парню за хамство, уверяет его, что он - её муж и отец троих детей. Чем обернется эта авантюра? И сколько шагов от ненависти до любви?
Рейтинг:
rating
MPAA: PG-13 - Детям до 13 лет просмотр не желателен
Качество: WEB-DL 1080p
Формат: MKV
Видео: AVC, 1920x804 (2.40:1), 4390 kbps, 23,976 fps, 0,119 bpp
Аудио №1: русский / AC3 / 5.1 / 48 kHz / 384 kbps / |DUB|
Аудио №2: английский / AC3 / 5.1 / 48 kHz / 384 kbps /
Навигация по главам: есть
Общее
Уникальный идентификатор : 197896482529516164196244137369019069301 (0x94E179E59296B869A9689823F7D7B375)
Полное имя : F:\OVERBOARD_2018_WEB_DL_1080p-BLUEBIRD.mkv
Формат : Matroska
Версия формата : Version 4 / Version 2
Размер файла : 4,13 Гбайт
Продолжительность : 1 ч. 52 м.
Общий поток : 5262 Кбит/сек
Название фильма : OVERBOARD_2018_WEB_DL_1080p-BLUEBIRD
Дата кодирования : UTC 2018-07-18 21:17:39
Программа кодирования : mkvmerge v6.9.1 ('Blue Panther') 32bit built on Apr 18 2014 18:15:44
Библиотека кодирования : libebml v1.3.0 + libmatroska v1.4.1

Видео
Идентификатор : 1
Формат : AVC
Формат/Информация : Advanced Video Codec
Профиль формата : High@L4
Настройки формата : CABAC / 5 Ref Frames
Параметр CABAC формата : Да
Параметр RefFrames формата : 5 кадров
Идентификатор кодека : V_MPEG4/ISO/AVC
Продолжительность : 1 ч. 52 м.
Битрейт : 4390 Кбит/сек
Ширина : 1908 пикселей
Высота : 804 пикселя
Соотношение сторон : 2,40:1
Режим частоты кадров : Постоянный
Частота кадров : 23,976 (24000/1001) кадра/сек
Цветовое пространство : YUV
Субдискретизация насыщенности : 4:2:0
Битовая глубина : 8 бит
Тип развёртки : Прогрессивная
Бит/(Пиксели*Кадры) : 0.119
Размер потока : 3,44 Гбайт (83%)
Заголовок : OVERBOARD_2018_WEB_DL_1080p-BLUEBIRD
Язык : English
Default : Да
Forced : Нет
Цветовой диапазон : Limited
Основные цвета : BT.709
Характеристики трансфера : BT.709
Коэффициенты матрицы : BT.709

Аудио #1
Идентификатор : 2
Формат : AC-3
Формат/Информация : Audio Coding 3
Идентификатор кодека : A_AC3
Продолжительность : 1 ч. 52 м.
Вид битрейта : Постоянный
Битрейт : 384 Кбит/сек
Каналы : 6 каналов
Расположение каналов : Front: L C R, Side: L R, LFE
Частота : 48,0 КГц
Частота кадров : 31,250 кадров/сек (1536 SPF)
Битовая глубина : 16 бит
Метод сжатия : С потерями
Задержка видео : -42 мс.
Размер потока : 308 Мбайт (7%)
Заголовок : [DUB] DD 5.1 @ 384 kbps (iTunes)
Язык : Russian
ServiceKind/String : Complete Main
Default : Да
Forced : Нет

Аудио #2
Идентификатор : 3
Формат : AC-3
Формат/Информация : Audio Coding 3
Идентификатор кодека : A_AC3
Продолжительность : 1 ч. 52 м.
Вид битрейта : Постоянный
Битрейт : 384 Кбит/сек
Каналы : 6 каналов
Расположение каналов : Front: L C R, Side: L R, LFE
Частота : 48,0 КГц
Частота кадров : 31,250 кадров/сек (1536 SPF)
Битовая глубина : 16 бит
Метод сжатия : С потерями
Задержка видео : -42 мс.
Размер потока : 308 Мбайт (7%)
Заголовок : [ORIGINAL] DD 5.1 @ 384 kbps (iTunes)
Язык : English
ServiceKind/String : Complete Main
Default : Нет
Forced : Нет

Текст
Идентификатор : 4
Формат : UTF-8
Идентификатор кодека : S_TEXT/UTF8
Идентификатор кодека/Информация : UTF-8 Plain Text
Заголовок : Full-length
Язык : English
Default : Нет
Forced : Нет

Меню
00:00:00.000 : en:1
00:01:07.000 : en:2
00:10:50.000 : en:3
00:20:31.000 : en:4
00:29:47.000 : en:5
00:39:45.000 : en:6
00:49:30.000 : en:7
01:00:52.000 : en:8
01:11:33.000 : en:9
01:21:51.000 : en:10
01:31:55.000 : en:11
01:45:52.000 : en:12
pb.wtf



Скачать За бортом через торрент https://a.radikal.ru/a34/1807/34/b273e359d709.png Скачать фильм За бортом через торрент бесплантно в хорошем качестве Описание: Леонардо, капризный плейбой-миллионер, однажды вываливается за борт своей яхты. После падения он теряет память, попадает в ... 9.6 10 32
Info! Золотая раздача, скачанное не засчитывается.
Торрент: Зарегистрирован [2018-07-19 09:02] · скачан: 1 045 раз
Статус: √ проверено
Размер: 4.13 GB
Как cкачать? Как скачать За бортом через торрент | qTorrent

% Раздел Тема Автор DL S | L
Фильмы (WEB-DL 720p, 1080p) [ 8.91 GB ] За бортом / Overboard [1987 BDRip 720p] 4xMVO +DVO+AVO+2xVO+DUB bober100 Скачать
1 | 0
Фильмы 2018 [DVDrip, WEB-DLRip, HDrip] (DUB, MVO) [ 2.15 GB ] За бортом / Overboard [2018 BDRip-AVC] DUB [] bober100 Скачать
2 | 0
Фильмы [HD 720p, 1080p] (Хороший звук DUB, MVO) [ 8.57 GB ] За бортом / Overboard [2018 BDRip 1080p] DUB [] bober100 Скачать
2 | 0
Фильмы 2018 [DVDrip, WEB-DLRip, HDrip] (DUB, MVO) [ 1.46 GB ] За бортом / Overboard [2018 BDRip] [RUS Transfer] DUB [ BD RUS] bober100 Скачать
1 | 0
Фильмы 2018 [DVDrip, WEB-DLRip, HDrip] (DUB, MVO) [ 2.18 GB ] За бортом / Overboard [2018 BDRip] [RUS Transfer] DUB [ BD RUS] bober100 Скачать
1 | 0
Фильмы 2018 [DVDrip, WEB-DLRip, HDrip] (DUB, MVO) [ 1.45 GB ] За бортом / Overboard [2018 BDRip-AVC] - [] - ExKinoRay Enigma2010 Скачать
1 | 0
Фильмы (Blu-ray, BD-Remux, HDDVD) [ 32.25 GB ] За бортом / Overboard [2018 Blu-ray 1080p] [RUS Transfer] DUB [] bober100 Скачать
1 | 0

28-11-2019 20:33  

Отключить всю рекламу на сайте

19-07-2018 09:10 За бортом Скачать торрент  

Фильм так себе. 3-. лучше посмотреть оригиналpb.wtf



19-07-2018 10:18 За бортом Скачать торрент  

Зачем платить сценаристам,когда можно ремейк херакнуть))pb.wtf



19-07-2018 14:21 За бортом Скачать торрент  

Через 30 лет еще снимут ремейк на ремейкpb.wtf



23-07-2018 04:55 За бортом Скачать торрент  

Неплохо. Разок посмотреть можно.pb.wtf



02-08-2018 09:48 За бортом Скачать торрент  

такой себе фильм, на троечкуpb.wtf



    Дорогой пользователь! Огромная просьба, поблагодарите релизера, оцените раздачу и оставьте свои комментарий, если Вы скачали За бортом через торрент бесплатно! Внесите свою лепту в развитие PiratBit!
    Комментировать посты могут только пользователи прошедшие не сложную регистрацию
    Показать сообщения:    

    За бортом через торрент
    Скачать бесплатно За бортом
    За бортом скачать торрент
    За бортом смотреть онлайн
    Cкачать фильм За бортом бесплатно
    За бортом скачать торрент в хорошем качестве
    За бортом смотреть онлайн бесплатно в хорошем качестве


    Вы не можете начинать темы
    Вы не можете отвечать на сообщения
    Вы не можете редактировать свои сообщения
    Вы не можете удалять свои сообщения
    Вы не можете голосовать в опросах
    Вы не можете прикреплять файлы к сообщениям
    Вы можете скачивать файлы