Ссылка на приватное зеркало нашего сайта всего за 1$. Внимание количество ограничено!!!

2 сезон

iTunes

1 сезон

1

2 сезон

2 сезон

iTunes

1 сезон

RePack

30

Ultimate

ВАЖНО

ИГРА 18+

pack

RePack

MK11
pack

Забери бонус

RePack

jed

!!Акция!!

Alien_Rage

RePack

fifa19

RePack

Assassins Creed: Odyssey

RePack

NEED FOR SPEED™ PAYBACK

4 сезон

9 сезон

Бесстыжие 9 сезон

Все сериалы

все сериалы на PB.wtf

RePack

FAR CRY 5
  

Сага о чудовище. Сумерки / Wildling (Фридрих Боэм) [2018, Ужасы, фэнтези, WEB-DL 720p] DUB [iTunes] pb.wtf

Сага о чудовище. Сумерки через торрент pb.wtf

Раздают: 1 [ 0 KB/s ]
Размер: 2.85 GB | Добавлен: 2 года 4 мес. назад | Торрент скачан:528 раз
Скачать  

19-07-2018 14:25 Сага о чудовище. Сумерки Скачать торрент  

Сага о чудовище. Сумерки / WildlingГод выпуска: 2018
Страна: США
Жанр: Ужасы, фэнтези
Продолжительность: 01:32:33
Перевод: Дублированный | iTunes
Субтитры: Английские

Режиссер: Фридрих Боэм

rating

В ролях:

Лив Тайлер, Брэд Дуриф, Бел Паули, Джеймс ЛеГрос, Майк Фейст, Коллин Келли-Сорделет, Kelly Lamor Wilson, Джулия Русацки, Трой Раптэш, Шарлотта Уббен, Фрэнк Дил, Патрик М. Уолш

Описание:

Сюжет посвящён истории 16-летней девушка Анны, с самых малых пор проводящей всё время в четырёх стенах запертого дома, поскольку опасается за свою жизнь: снаружи рыскает ужасающий монстр, пожирающий детей. Когда же девушка узнаёт, что вся эта история является не больше чем выдумкой её воспитателя, она решается выйти из дома. Однако сразу после этого начинают происходить страшные и необъяснимые события.

Качество: WEB-DL 720p
Формат: MKV

Видео: MPEG-4 AVC, 6252 Кбит/с, 1920x800
Аудио#1: Русский (AC3, 6 ch, 384 Кбит/с)
Аудио#2: английский (Е-AC3, 6 ch, 640 Кбит/с)
скриншот  скриншот  скриншот  

Общее
Уникальный идентификатор : 240450202532309116538749729714098012143 (0xB4E50646E227056EB4FD013A8405FFEF)
Полное имя : E:\Wildling.2O18.D.WeB-DL.72Op.mkv
Формат : Matroska
Версия формата : Version 2
Размер файла : 2,85 Гбайт
Продолжительность : 1 ч. 32 м.
Общий поток : 4403 Кбит/сек
Дата кодирования : UTC 2018-07-18 22:48:57
Программа кодирования : mkvmerge v8.3.0 ('Over the Horizon') 64bit
Библиотека кодирования : libebml v1.3.1 + libmatroska v1.4.2

Видео
Идентификатор : 1
Формат : AVC
Формат/Информация : Advanced Video Codec
Профиль формата : Main@L4.1
Настройки формата : CABAC / 4 Ref Frames
Параметр CABAC формата : Да
Параметр RefFrames формата : 4 кадра
Идентификатор кодека : V_MPEG4/ISO/AVC
Продолжительность : 1 ч. 32 м.
Битрейт : 3400 Кбит/сек
Ширина : 1280 пикселей
Высота : 536 пикселей
Соотношение сторон : 2,40:1
Соотношение сторон в оригинале : 2,40:1
Режим частоты кадров : Постоянный
Частота кадров : 23,976 (24000/1001) кадра/сек
Цветовое пространство : YUV
Субдискретизация насыщенности : 4:2:0
Битовая глубина : 8 бит
Тип развёртки : Прогрессивная
Бит/(Пиксели*Кадры) : 0.207
Размер потока : 2,13 Гбайт (75%)
Библиотека кодирования : x264 core 148 r2708 86b7198
Настройки программы : cabac=1 / ref=1 / deblock=1:0:0 / analyse=0x1:0x111 / me=hex / subme=2 / psy=1 / psy_rd=1.00:0.00 / mixed_ref=0 / me_range=16 / chroma_me=1 / trellis=0 / 8x8dct=0 / cqm=0 / deadzone=21,11 / fast_pskip=1 / chroma_qp_offset=0 / threads=12 / lookahead_threads=4 / sliced_threads=0 / nr=0 / decimate=1 / interlaced=0 / bluray_compat=0 / constrained_intra=0 / bframes=3 / b_pyramid=2 / b_adapt=1 / b_bias=0 / direct=1 / weightb=1 / open_gop=0 / weightp=1 / keyint=240 / keyint_min=24 / scenecut=40 / intra_refresh=0 / rc_lookahead=10 / rc=abr / mbtree=1 / bitrate=3400 / ratetol=1.0 / qcomp=0.60 / qpmin=0 / qpmax=69 / qpstep=4 / vbv_maxrate=50000 / vbv_bufsize=62500 / nal_hrd=none / filler=0 / ip_ratio=1.40 / aq=1:1.00
Default : Да
Forced : Нет
Цветовой диапазон : Limited
Основные цвета : BT.709
Характеристики трансфера : BT.709
Коэффициенты матрицы : BT.709

Аудио #1
Идентификатор : 2
Формат : AC-3
Формат/Информация : Audio Coding 3
Идентификатор кодека : A_AC3
Продолжительность : 1 ч. 32 м.
Вид битрейта : Постоянный
Битрейт : 384 Кбит/сек
Каналы : 6 каналов
Расположение каналов : Front: L C R, Side: L R, LFE
Частота : 48,0 КГц
Частота кадров : 31,250 кадров/сек (1536 SPF)
Битовая глубина : 16 бит
Метод сжатия : С потерями
Размер потока : 254 Мбайт (9%)
Язык : Russian
ServiceKind/String : Complete Main
Default : Да
Forced : Да

Аудио #2
Идентификатор : 3
Формат : E-AC-3
Формат/Информация : Enhanced Audio Coding 3
Идентификатор кодека : A_EAC3
Продолжительность : 1 ч. 32 м.
Вид битрейта : Постоянный
Битрейт : 640 Кбит/сек
Каналы : 6 каналов
Расположение каналов : Front: L C R, Side: L R, LFE
Частота : 48,0 КГц
Частота кадров : 187,500 кадров/сек (256 SPF)
Метод сжатия : С потерями
Размер потока : 424 Мбайт (15%)
Язык : English
ServiceKind/String : Complete Main
Default : Нет
Forced : Нет

Текст #1
Идентификатор : 4
Формат : ASS
Идентификатор кодека : S_TEXT/ASS
Идентификатор кодека/Информация : Advanced Sub Station Alpha
Метод сжатия : Без потерь
Язык : English
Default : Нет
Forced : Нет

Текст #2
Идентификатор : 5
Формат : ASS
Идентификатор кодека : S_TEXT/ASS
Идентификатор кодека/Информация : Advanced Sub Station Alpha
Метод сжатия : Без потерь
Язык : English
Default : Нет
Forced : Нет

pb.wtf



Скачать Сага о чудовище. Сумерки через торрент http://lostpix.com/img/2018-04/22/eh1n940xl71hz6eyz30ke9yhz.jpg Скачать фильм Сага о чудовище. Сумерки через торрент бесплантно в хорошем качестве Описание: Сюжет посвящён истории 16-летней девушка Анны, с самых малых пор проводящей всё время в четырёх стенах запертого дома, поскольку ... 8.1 10 15
Торрент: Зарегистрирован [2018-07-19 14:25] · скачан: 528 раз
Статус: √ проверено
Размер: 2.85 GB
Как cкачать? Как скачать Сага о чудовище. Сумерки через торрент | qTorrent

% Раздел Тема Автор DL S | L
Фильмы 2018 [DVDrip, WEB-DLRip, HDrip] (DUB, MVO) [ 1.42 GB ] Сага о чудовище. Сумерки / Wildling [2018 BDRip] - Twi7ter Скачать
1 | 0
Фильмы 2018 [DVDrip, WEB-DLRip, HDrip] (DUB, MVO) [ 1.53 GB ] Сага о чудовище. Сумерки / Wildling [2018 BDRip-AVC] bober100 Скачать
1 | 0
Фильмы (Blu-ray, BD-Remux, HDDVD) [ 17.59 GB ] Сага о чудовище. Сумерки / Wildling [2018 BD Remux 1080p] bober100 Скачать
1 | 0
Фильмы 2018 [DVDrip, WEB-DLRip, HDrip] (DUB, MVO) [ 745 MB ] Сага о чудовище. Сумерки / Wildling [2018 BDRip] bober100 Скачать
1 | 0
Фильмы 2018 [DVDrip, WEB-DLRip, HDrip] (DUB, MVO) [ 1.42 GB ] Сага о чудовище. Сумерки / Wildling [2018 BDRip] bober100 Скачать
1 | 0
Фильмы (WEB-DL 720p, 1080p) [ 4.7 GB ] Сага о чудовище. Сумерки / Wildling [2018 WEB-DL 1080p] bober100 Скачать
1 | 0

28-11-2019 20:33  

Отключить всю рекламу на сайте

20-07-2018 02:21 Сага о чудовище. Сумерки Скачать торрент  

залюпаpb.wtf



20-07-2018 11:31 Сага о чудовище. Сумерки Скачать торрент  

maugli89 писал(а):

залюпа

это не залюпа, это лицо у нее такое)pb.wtf



20-07-2018 18:53 Сага о чудовище. Сумерки Скачать торрент  

maugli89 писал(а):

залюпа

ахахаха pb.wtf



25-07-2018 07:45 Сага о чудовище. Сумерки Скачать торрент  

ближе к концу качество фильма (и так не высокое) стремительно падает, поэтому лучше посмотреть что нибудь другоеpb.wtf



    Дорогой пользователь! Огромная просьба, поблагодарите релизера, оцените раздачу и оставьте свои комментарий, если Вы скачали Сага о чудовище. Сумерки через торрент бесплатно! Внесите свою лепту в развитие PiratBit!
    Комментировать посты могут только пользователи прошедшие не сложную регистрацию
    Показать сообщения:    

    Сага о чудовище. Сумерки через торрент
    Скачать бесплатно Сага о чудовище. Сумерки
    Сага о чудовище. Сумерки скачать торрент
    Сага о чудовище. Сумерки смотреть онлайн
    Cкачать фильм Сага о чудовище. Сумерки бесплатно
    Сага о чудовище. Сумерки скачать торрент в хорошем качестве
    Сага о чудовище. Сумерки смотреть онлайн бесплатно в хорошем качестве


    Вы не можете начинать темы
    Вы не можете отвечать на сообщения
    Вы не можете редактировать свои сообщения
    Вы не можете удалять свои сообщения
    Вы не можете голосовать в опросах
    Вы не можете прикреплять файлы к сообщениям
    Вы можете скачивать файлы