Ссылка на приватное зеркало нашего сайта всего за 1$. Внимание количество ограничено!!!

2 сезон

iTunes

1 сезон

1

iTunes

iTunes

iTunes

1 сезон

RePack

30

ИГРА 18+

pack

ВАЖНО

!!Акция!!

Alien_RageХит недели

RePack

MK11
pack

Забери бонус

RePack

jed

!!Акция!!

Alien_Rage

RePack

fifa19

RePack

Assassins Creed: Odyssey

RePack

NEED FOR SPEED™ PAYBACK

4 сезон

9 сезон

Бесстыжие 9 сезон

Все сериалы

все сериалы на PB.wtf

RePack

FAR CRY 5
  

Не в себе / Unsane (Стивен Содерберг) [2018, ужасы, триллер, BD Remux 1080p] DUB [iTunes] pb.wtf

Не в себе через торрент pb.wtf

Размер: 24.07 GB | Добавлен: 2 года 3 мес. назад | Торрент скачан:113 раз
Скачать  

20-07-2018 04:19 Не в себе Скачать торрент  

Не в себе / Unsane
Год выпуска: 2018
Страна: США
Жанр: ужасы, триллер
Продолжительность: 01:38:11
Перевод: Дублированный | iTunes
Субтитры: Русские, английские

Режиссер: Стивен Содерберг

rating

В ролях:

Джошуа Леонард, Клер Фой, Сара Стайлс, Марк Кадиш, Эми Ирвинг, Колин Вуделл, Мира Лукреция Тейлор, Линда Моз, Зак Черри, Полли МакКи

Описание:

Девушка покидает родной город, чтобы сбежать от проблемного прошлого и найти новую работу. Но когда она не по своей воле оказывается в психиатрическом учреждении, ей приходится столкнуться со своим самым большим страхом. Но реален ли он, или это - просто плод ее воображения? Героине кажется, что никто не верит ей, а власти не могут или не хотят помочь, поэтому она должна в одиночку противостоять своим страхам.

Качество: BD Remux 1080p
Формат: MKV

Видео: MPEG-4 AVC, 31800 Кбит/с, 1920x1080
Аудио#1: Русский (AC3, 6 ch, 384 Кбит/с)
Аудио#2: английский (DTS-HD MA, 6 ch, 3072 Кбит/с)
скриншот  скриншот  скриншот  

General
Unique ID : 266878343085452494831323262009961483030 (0xC8C6E634F6E1AC2A5FDB89A6DB7E0B16)
Complete name : F:\Видосики\Unsane.2018.bdremuX.108Op.werecut.PROD.mkv
Format : Matroska
Format version : Version 4 / Version 2
File size : 24.1 GiB
Duration : 1 h 37 min
Overall bit rate mode : Variable
Overall bit rate : 35.2 Mb/s
Movie name : Unsane 2018 OT werecut PROD.
Encoded date : UTC 2018-07-18 22:29:23
Writing application : mkvmerge v24.0.0 ('Beyond The Pale') 64-bit
Writing library : libebml v1.3.6 + libmatroska v1.4.9

Video
ID : 1
Format : AVC
Format/Info : Advanced Video Codec
Format profile : High@L4.1
Format settings : CABAC / 4 Ref Frames
Format settings, CABAC : Yes
Format settings, ReFrames : 4 frames
Codec ID : V_MPEG4/ISO/AVC
Duration : 1 h 37 min
Bit rate mode : Variable
Bit rate : 31.8 Mb/s
Maximum bit rate : 35.0 Mb/s
Width : 1 920 pixels
Height : 1 080 pixels
Display aspect ratio : 16:9
Frame rate mode : Constant
Frame rate : 23.976 (24000/1001) FPS
Color space : YUV
Chroma subsampling : 4:2:0
Bit depth : 8 bits
Scan type : Progressive
Bits/(Pixel*Frame) : 0.639
Stream size : 21.7 GiB (90%)
Language : English
Default : Yes
Forced : No

Audio #1
ID : 2
Format : AC-3
Format/Info : Audio Coding 3
Codec ID : A_AC3
Duration : 1 h 37 min
Bit rate mode : Constant
Bit rate : 384 kb/s
Channel(s) : 6 channels
Channel positions : Front: L C R, Side: L R, LFE
Sampling rate : 48.0 kHz
Frame rate : 31.250 FPS (1536 SPF)
Bit depth : 16 bits
Compression mode : Lossy
Stream size : 269 MiB (1%)
Language : Russian
Service kind : Complete Main
Default : Yes
Forced : Yes

Audio #2
ID : 3
Format : DTS
Format/Info : Digital Theater Systems
Format profile : MA / Core
Codec ID : A_DTS
Duration : 1 h 37 min
Bit rate mode : Variable / Constant
Bit rate : 3 072 kb/s / 1 509 kb/s
Channel(s) : 6 channels
Channel positions : Front: L C R, Side: L R, LFE
Sampling rate : 48.0 kHz
Frame rate : 93.750 FPS (512 SPF)
Bit depth : 24 bits
Compression mode : Lossless / Lossy
Stream size : 2.11 GiB (9%)
Language : English
Default : No
Forced : No

Text #1
ID : 4
Format : UTF-8
Codec ID : S_TEXT/UTF8
Codec ID/Info : UTF-8 Plain Text
Duration : 1 h 35 min
Bit rate : 98 b/s
Count of elements : 1313
Stream size : 69.0 KiB (0%)
Language : Russian
Default : No
Forced : No

Text #2
ID : 5
Format : UTF-8
Codec ID : S_TEXT/UTF8
Codec ID/Info : UTF-8 Plain Text
Duration : 1 h 35 min
Bit rate : 60 b/s
Count of elements : 1283
Stream size : 42.6 KiB (0%)
Language : English
Default : No
Forced : No

Menu
00:00:00.000 : en:00:00:00.000
00:05:40.257 : en:00:05:40.257
00:10:21.913 : en:00:10:21.913
00:14:24.697 : en:00:14:24.697
00:19:26.332 : en:00:19:26.332
00:24:46.235 : en:00:24:46.235
00:29:10.165 : en:00:29:10.165
00:36:35.402 : en:00:36:35.402
00:40:25.089 : en:00:40:25.089
00:45:23.596 : en:00:45:23.596
00:50:14.803 : en:00:50:14.803
00:56:12.286 : en:00:56:12.286
00:59:06.835 : en:00:59:06.835
01:04:44.464 : en:01:04:44.464
01:07:30.046 : en:01:07:30.046
01:15:37.450 : en:01:15:37.450
01:23:25.334 : en:01:23:25.334
01:26:39.653 : en:01:26:39.653
01:30:23.168 : en:01:30:23.168
01:35:08.411 : en:01:35:08.411

pb.wtf



Скачать Не в себе через торрент http://lostpix.com/img/2018-06/10/94bxjopid951x7garjlds85ph.jpg Скачать фильм Не в себе через торрент бесплантно в хорошем качестве Описание: Девушка покидает родной город, чтобы сбежать от проблемного прошлого и найти новую работу. Но когда она не по своей воле ... 10 10 9
Торрент: Зарегистрирован [2018-07-20 04:19] · скачан: 113 раз
Статус: √ проверено
Размер: 24.07 GB
Как cкачать? Как скачать Не в себе через торрент | qTorrent

% Раздел Тема Автор DL S | L
Фильмы [HD 720p, 1080p] (Хороший звук DUB, MVO) [ 13.16 GB ] Не в себе / Unsane [2018 BDRip 1080p] MVO [HDRezka Studio] +DUB [] bober100 Скачать
1 | 0
Фильмы [HD 720p, 1080p] (Хороший звук DUB, MVO) [ 8.21 GB ] Не в себе / Unsane [2018 BDRip 720p] MVO [HDRezka Studio] +DUB [] bober100 Скачать
1 | 0
Фильмы (Blu-ray, BD-Remux, HDDVD) [ 31.68 GB ] Не в себе / Unsane [2018 Blu-Ray EUR 1080p] sheker187 Скачать
1 | 0
Ultra HD (UHD: 2K, 4K, 8K) — видео сверхвысокой чёткости [ 53.08 GB ] Не в себе / Unsane [2018 UHD BDRemux 2160p] [HDR] MVO [HDRezka Studio] +DUB [] bober100 Скачать
1 | 0
Фильмы 2018 [DVDrip, WEB-DLRip, HDrip] (DUB, MVO) [ 1.46 GB ] Не в себе / Unsane [2018 BDRip] - [] Twi7ter Скачать
3 | 0
Фильмы 2018 [DVDrip, WEB-DLRip, HDrip] (DUB, MVO) [ 2.45 GB ] Не в себе / Unsane [2018 BDRip-AVC] MVO [HDRezka Studio] +DUB [] bober100 Скачать
1 | 0
Фильмы 2018 [DVDrip, WEB-DLRip, HDrip] (DUB, MVO) [ 1.46 GB ] Не в себе / Unsane [2018 BDRip] DUB [ BD EUR] bober100 Скачать
1 | 0

28-11-2019 20:33  

Отключить всю рекламу на сайте

    Дорогой пользователь! Огромная просьба, поблагодарите релизера, оцените раздачу и оставьте свои комментарий, если Вы скачали Не в себе через торрент бесплатно! Внесите свою лепту в развитие PiratBit!
    Комментировать посты могут только пользователи прошедшие не сложную регистрацию
    Показать сообщения:    

    Не в себе через торрент
    Скачать бесплатно Не в себе
    Не в себе скачать торрент
    Не в себе смотреть онлайн
    Cкачать фильм Не в себе бесплатно
    Не в себе скачать торрент в хорошем качестве
    Не в себе смотреть онлайн бесплатно в хорошем качестве


    Вы не можете начинать темы
    Вы не можете отвечать на сообщения
    Вы не можете редактировать свои сообщения
    Вы не можете удалять свои сообщения
    Вы не можете голосовать в опросах
    Вы не можете прикреплять файлы к сообщениям
    Вы можете скачивать файлы