Ссылка на приватное зеркало нашего сайта всего за 1$. Внимание количество ограничено!!!

2 сезон

iTunes

1 сезон

1

2 сезон

2 сезон

iTunes

1 сезон

RePack

30

Ultimate

ВАЖНО

ИГРА 18+

pack

RePack

MK11
pack

Забери бонус

RePack

jed

!!Акция!!

Alien_Rage

RePack

fifa19

RePack

Assassins Creed: Odyssey

RePack

NEED FOR SPEED™ PAYBACK

4 сезон

9 сезон

Бесстыжие 9 сезон

Все сериалы

все сериалы на PB.wtf

RePack

FAR CRY 5
  

Тихоокеанский рубеж 2 / Pacific Rim Uprising (Стивен С. ДеНайт) [2018, фантастика, боевик, приключения, BD Remux 1080p] MVO [HDRezka Studio] +DUB (rus, ukr) [Лицензия] pb.wtf

Тихоокеанский рубеж 2 через торрент pb.wtf

Размер: 29.43 GB | Добавлен: 2 года 4 мес. назад | Торрент скачан:73 раза
Скачать  

20-07-2018 04:24 Тихоокеанский рубеж 2 Скачать торрент  

Тихоокеанский рубеж 2 / Pacific Rim Uprising
Год выпуска: 2018
Страна: Китай, США
Жанр: фантастика, боевик, приключения
Продолжительность: 01:50:41
Перевод:

#1: Дублированный | Лицензия
#2: Профессиональный многоголосый | HDRezka Studio

Субтитры: Русские (полные, форсированные), украинские (форсированные), английские

Режиссер: Стивен С. ДеНайт

rating

В ролях:

Джон Бойега (Jake Pentecost), Скотт Иствуд (Nate Lambert), Кэйли Спэни (Amara Namani), Берн Горман (Dr. Hermann Gottlieb), Чарли Дэй (Dr. Newton Geiszler), Цзин Тянь (Liwen Shao), Макс Чжан (Marshal Quan), Адриа Архона (Jules Reyes), Ринко Кикути (Mako Mori), Каран Брэр (Cadet Suresh), Уэсли Вон (Cadet Jinhai), Иванна Сахно (Cadet Viktoria)
Описание:

Команда пилотируемых роботов-защитников остановила вторжение гигантских инопланетных монстров. Великая битва за Тихоокеанский рубеж ознаменовала новую главу в истории человечества. Однако война только начинается...

Пришло время нового поколения отстаивать своё право на Землю.

Качество: BD Remux 1080p
Формат: MKV

Видео: MPEG-4 AVC, 32.5 Мбит/с, 1920x1080
Аудио#1: 48 kHz, AC3, 5.1, 640 Kbps | Лицензия | RUS |
Аудио#2: 48 kHz, AC3, 2.0, 192 Kbps | HDRezka | RUS |
Аудио#3: 48 kHz, AC3, 2.0, 192 Kbps | UKR |
Аудио#4: TrueHD TrueHD+Atmos / TrueHD, / 48.0 kHz, Object Based / 8 ch, 4 000 kb/s, VBR (English)
Аудио#5: 48 kHz, AC3, 5.1, 448 Kbps | ENG |
скриншот  скриншот  скриншот  

Общее
Уникальный идентификатор : 184330087076121346553276631429693674045 (0x8AACAEF59AFAFC4940D1C9BB08DD923D)
Полное имя : Pacific.Rim.Uprising.2018.BDRemux.1080p.IVA(RUS.UKR.ENG).ExKinoRay.mkv
Формат : Matroska
Версия формата : Version 4 / Version 2
Размер файла : 29,4 Гбайт
Продолжительность : 1 ч. 50 м.
Режим общего битрейта : Переменный
Общий поток : 38,1 Мбит/сек
Название фильма : Тихоокеанский рубеж 2 / Pacific Rim Uprising ( 2018 ) BDRemux 1080p | IVA(RUS.UKR.ENG) | ExKinoRay
Дата кодирования : UTC 2018-07-19 10:06:41
Программа кодирования : mkvmerge v25.0.0 ('Prog Noir') 64-bit
Библиотека кодирования : libebml v1.3.6 + libmatroska v1.4.9
Обложка : Yes
Attachments : cover

Видео
Идентификатор : 1
Формат : AVC
Формат/Информация : Advanced Video Codec
Профиль формата : High@L4.1
Настройки формата : CABAC / 4 Ref Frames
Параметр CABAC формата : Да
Параметр RefFrames формата : 4 кадра
Идентификатор кодека : V_MPEG4/ISO/AVC
Продолжительность : 1 ч. 50 м.
Вид битрейта : Переменный
Битрейт : 32,5 Мбит/сек
Максимальный битрейт : 37,0 Мбит/сек
Ширина : 1920 пикселей
Высота : 1080 пикселей
Соотношение сторон : 16:9
Режим частоты кадров : Постоянный
Частота кадров : 23,976 (24000/1001) кадра/сек
Цветовое пространство : YUV
Субдискретизация насыщенности : 4:2:0
Битовая глубина : 8 бит
Тип развёртки : Прогрессивная
Бит/(Пиксели*Кадры) : 0.654
Размер потока : 25,1 Гбайт (85%)
Заголовок : Pacific.Rim.Uprising.2018.BDRemux.1080p
Язык : English
Default : Да
Forced : Нет

Аудио #1
Идентификатор : 2
Формат : AC-3
Формат/Информация : Audio Coding 3
Идентификатор кодека : A_AC3
Продолжительность : 1 ч. 50 м.
Вид битрейта : Постоянный
Битрейт : 640 Кбит/сек
Каналы : 6 каналов
Расположение каналов : Front: L C R, Side: L R, LFE
Частота : 48,0 КГц
Частота кадров : 31,250 кадров/сек (1536 SPF)
Битовая глубина : 16 бит
Метод сжатия : С потерями
Размер потока : 507 Мбайт (2%)
Заголовок : | Дублированный |
Язык : Russian
ServiceKind : Complete Main
Default : Да
Forced : Нет

Аудио #2
Идентификатор : 3
Формат : AC-3
Формат/Информация : Audio Coding 3
Идентификатор кодека : A_AC3
Продолжительность : 1 ч. 50 м.
Вид битрейта : Постоянный
Битрейт : 192 Кбит/сек
Каналы : 2 канала
Расположение каналов : Front: L R
Частота : 48,0 КГц
Частота кадров : 31,250 кадров/сек (1536 SPF)
Битовая глубина : 16 бит
Метод сжатия : С потерями
Размер потока : 152 Мбайт (1%)
Заголовок : | MVO, HDRezka |
Язык : Russian
ServiceKind : Complete Main
Default : Нет
Forced : Нет

Аудио #3
Идентификатор : 4
Формат : AC-3
Формат/Информация : Audio Coding 3
Идентификатор кодека : A_AC3
Продолжительность : 1 ч. 50 м.
Вид битрейта : Постоянный
Битрейт : 192 Кбит/сек
Каналы : 2 канала
Расположение каналов : Front: L R
Частота : 48,0 КГц
Частота кадров : 31,250 кадров/сек (1536 SPF)
Битовая глубина : 16 бит
Метод сжатия : С потерями
Размер потока : 152 Мбайт (1%)
Заголовок : | Дублированный |
Язык : Ukrainian
ServiceKind : Complete Main
Default : Нет
Forced : Нет

Аудио #4
Идентификатор : 5
Формат : TrueHD
Профиль формата : TrueHD+Atmos / TrueHD
Идентификатор кодека : A_TRUEHD
Продолжительность : 1 ч. 50 м.
Вид битрейта : Переменный
Битрейт : 4000 Кбит/сек
Максимальный битрейт : 7437 Кбит/сек
Каналы : Object Based / 8 каналов
Расположение каналов : Object Based / Front: L C R, Side: L R, Back: L R, LFE
Частота : / 48,0 КГц
Частота кадров : 1200,000 кадров/сек (40 SPF)
Метод сжатия : Без потерь
Размер потока : 3,09 Гбайт (11%)
Заголовок : | Original |
Язык : English
Default : Нет
Forced : Нет

Аудио #5
Идентификатор : 6
Формат : AC-3
Формат/Информация : Audio Coding 3
Идентификатор кодека : A_AC3
Продолжительность : 1 ч. 50 м.
Вид битрейта : Постоянный
Битрейт : 448 Кбит/сек
Каналы : 6 каналов
Расположение каналов : Front: L C R, Side: L R, LFE
Частота : 48,0 КГц
Частота кадров : 31,250 кадров/сек (1536 SPF)
Битовая глубина : 16 бит
Метод сжатия : С потерями
Размер потока : 355 Мбайт (1%)
Заголовок : | Original, AC3 Core |
Язык : English
ServiceKind : Complete Main
Default : Нет
Forced : Нет

Текст #1
Идентификатор : 7
Формат : UTF-8
Идентификатор кодека : S_TEXT/UTF8
Идентификатор кодека/Информация : UTF-8 Plain Text
Продолжительность : 1 ч. 38 м.
Битрейт : 1 бит/сек
ElementCount : 25
Размер потока : 1,15 Кбайт (0%)
Заголовок : Forced
Язык : Russian
Default : Да
Forced : Да

Текст #2
Идентификатор : 8
Формат : UTF-8
Идентификатор кодека : S_TEXT/UTF8
Идентификатор кодека/Информация : UTF-8 Plain Text
Продолжительность : 1 ч. 40 м.
Битрейт : 104 бит/сек
ElementCount : 1191
Размер потока : 76,6 Кбайт (0%)
Заголовок : Full
Язык : Russian
Default : Нет
Forced : Нет

Текст #3
Идентификатор : 9
Формат : UTF-8
Идентификатор кодека : S_TEXT/UTF8
Идентификатор кодека/Информация : UTF-8 Plain Text
Продолжительность : 1 ч. 38 м.
Битрейт : 4 бит/сек
ElementCount : 58
Размер потока : 3,57 Кбайт (0%)
Заголовок : Forced
Язык : Ukrainian
Default : Нет
Forced : Да

Текст #4
Идентификатор : 10
Формат : UTF-8
Идентификатор кодека : S_TEXT/UTF8
Идентификатор кодека/Информация : UTF-8 Plain Text
Продолжительность : 1 ч. 40 м.
Битрейт : 59 бит/сек
ElementCount : 1161
Размер потока : 43,4 Кбайт (0%)
Заголовок : Full
Язык : English
Default : Нет
Forced : Нет

Меню
00:00:00.000 : en:Chapter 1
00:06:55.289 : en:Chapter 2
00:13:06.160 : en:Chapter 3
00:15:52.034 : en:Chapter 4
00:20:37.611 : en:Chapter 5
00:24:51.198 : en:Chapter 6
00:31:10.118 : en:Chapter 7
00:37:58.359 : en:Chapter 8
00:43:40.576 : en:Chapter 9
00:49:04.691 : en:Chapter 10
00:53:44.137 : en:Chapter 11
00:58:15.533 : en:Chapter 12
01:04:48.885 : en:Chapter 13
01:09:29.707 : en:Chapter 14
01:14:41.185 : en:Chapter 15
01:22:58.390 : en:Chapter 16
01:29:07.884 : en:Chapter 17
01:33:16.173 : en:Chapter 18
01:38:13.262 : en:Chapter 19
01:41:01.096 : en:Chapter 20

pb.wtf



Скачать Тихоокеанский рубеж 2 через торрент https://c.radikal.ru/c16/1806/47/05665544f3e8.jpg Скачать фильм Тихоокеанский рубеж 2 через торрент бесплантно в хорошем качестве Описание: Команда пилотируемых роботов-защитников остановила вторжение гигантских инопланетных монстров. Великая битва за Тихоокеанский ... 10 10 2
Info! Золотая раздача, скачанное не засчитывается.
Торрент: Зарегистрирован [2018-07-20 04:24] · скачан: 73 раз
Статус: √ проверено
Размер: 29.43 GB
Как cкачать? Как скачать Тихоокеанский рубеж 2 через торрент | qTorrent

% Раздел Тема Автор DL S | L
Ultra HD (UHD: 2K, 4K, 8K) — видео сверхвысокой чёткости [ 60.11 GB ] Тихоокеанский рубеж 2 / Pacific Rim Uprising [2018 UHD BDRemux 2160p] [Dolby Vision TV] DUB [] bober100 Скачать
1 | 0
Фильмы [HD 720p, 1080p] (Хороший звук DUB, MVO) [ 6.64 GB ] Тихоокеанский рубеж 2 / Pacific Rim Uprising [2018 BDRip 720p] DUB [] bober100 Скачать
1 | 0
3D Фильмы [ 13.16 GB ] Тихоокеанский рубеж 2 3Д / Pacific Rim Uprising 3D [2018 BDRip 1080p] [Локализованная версия] [Half OverUnder / Вертикальная анаморфная стереопара] DUB bober100 Скачать
1 | 0
Фильмы (WEB-DL 720p, 1080p) [ 3.79 GB ] Тихоокеанский рубеж 2 / Pacific Rim Uprising [2018 WEB-DL 1080p] bober100 Скачать
1 | 0
Ultra HD (UHD: 2K, 4K, 8K) — видео сверхвысокой чёткости [ 22.94 GB ] Тихоокеанский рубеж 2 / Pacific Rim: Uprising [2018 UHD BDRip 2160p] DUB + MVO [HDRezka Studio] sheker187 Скачать
1 | 0
Фильмы [HD 720p, 1080p] (Хороший звук DUB, MVO) [ 12.83 GB ] Тихоокеанский рубеж 2 / Pacific Rim Uprising [2018 BDRip 1080p] DUB [] bober100 Скачать
2 | 0
Фильмы 2018 [DVDrip, WEB-DLRip, HDrip] (DUB, MVO) [ 3.21 GB ] Тихоокеанский рубеж 2 / Pacific Rim Uprising [2018 BDRip-AVC] MVO [HDrezka Studio] - ExKinoRay Enigma2010 Скачать
1 | 0

28-11-2019 20:33  

Отключить всю рекламу на сайте

    Дорогой пользователь! Огромная просьба, поблагодарите релизера, оцените раздачу и оставьте свои комментарий, если Вы скачали Тихоокеанский рубеж 2 через торрент бесплатно! Внесите свою лепту в развитие PiratBit!
    Комментировать посты могут только пользователи прошедшие не сложную регистрацию
    Показать сообщения:    

    Тихоокеанский рубеж 2 через торрент
    Скачать бесплатно Тихоокеанский рубеж 2
    Тихоокеанский рубеж 2 скачать торрент
    Тихоокеанский рубеж 2 смотреть онлайн
    Cкачать фильм Тихоокеанский рубеж 2 бесплатно
    Тихоокеанский рубеж 2 скачать торрент в хорошем качестве
    Тихоокеанский рубеж 2 смотреть онлайн бесплатно в хорошем качестве


    Вы не можете начинать темы
    Вы не можете отвечать на сообщения
    Вы не можете редактировать свои сообщения
    Вы не можете удалять свои сообщения
    Вы не можете голосовать в опросах
    Вы не можете прикреплять файлы к сообщениям
    Вы можете скачивать файлы