Мега распродажа FORZA HORIZON 4 ULTIMATE+ВСЕ DLC+ОНЛАЙН всего за 499р. 349 руб. (супер цена). Внимание количество ограничено!!!

Лицензия

30

iTunes

мы

iTunes

1

1 сезон

Чернобыль

1 сезон

Ральф против интернета

MVO

Покемон. Детектив Пикачу

8 сезон

Игра престолов

iTunes

1+1

ИГРА 18+

pack

ВАЖНО

!!Акция!!

Alien_RageХит недели

RePack

Resident Evil 21
pack

RePack

Metro:Exodus

!!Акция!!

Alien_Rage

RePack

fifa19

RePack

Assassins Creed: Odyssey

RePack

NEED FOR SPEED™ PAYBACK

3 сезон

9 сезон

Бесстыжие 9 сезон

Все сериалы

все сериалы на PB.wtf

RePack

FAR CRY 5
Ребята, катастрофически не хватает 2730р. для оплаты серверов за МАЙ (всвязи с блокировками трафик упал в 3 раза), 1-2р., выручайте.
  

Гранд тур / The Grand Tour / Сезон: 2 / Серии: 1-11 из 11 [2017, Автошоу, UHD WEBRip 2160p] [HDR] MVO [AlexFilm] pb.wtf

Гранд тур через торрент pb.wtf

Размер: 139.01 GB | Добавлен: 11 мес. назад | Торрент скачан:2 раза
Скачать  

20-07-2018 10:14 Гранд тур Скачать торрент  

Гранд тур / The Grand Tour
Информация о фильме:

Название: Гранд тур
Оригинальное название: The Grand Tour
Год выпуска: 2017
Страна: Великобритания
Вид спорта: Автошоу
Продолжительность: ~ 01:10:00 выпуск
Комментарий: Профессиональный (многоголосый) | AlexFilm
Субтитры: Russian

В ролях:

Джереми Кларксон, Ричард Хаммонд и Джэймс Мэй

Описание:

Предлагаем вашему вниманию долгожданный многими фанатами автомобилей проект с легендарными ведущими Джереми Кларксоном, Джеймом Мэйем и Ричардом Хаммондом. В центре внимания проекта оказываются автомобили со всего света. Ведущие отправляются в большое путешествие по миру, чтобы найти раритетные модели авто или же невероятные суперкары. В каждом новом городе будет снят очередной эпизод этого шоу, а ведущие проведут тест драйв местных автомобилей, рассказав о них кое-что по-настоящему интересное. На улице любителей "Топ Гира" огромный праздник - "Гранд Тур" вашему вниманию!



Информация о файле:

Качество: UHD WEBRip 2160p | HDR
Формат: MKV
Видео кодек: H.265
Аудио кодек: AC3

Видео: ~ 3840x2160 (16:9), ~29400 kbps avg, 25,000 fps
Аудио#1 RU: AC3, 6 ch, 384 kbps - AlexFilm
Аудио#2 EN: AC3, 6 ch, 640 kbps
скриншот  скриншот  скриншот  скриншот  

Общее
Уникальный идентификатор : 150565441103460531715416779376342366492 (0x7145D9629F3D4B334EB1384CA2C4791C)
Полное имя : The.Grand.Tour.2016.S02E01.2160p.HDR.AMZN.WEBRip.DD5.1.EN.RU.x265.mkv
Формат : Matroska
Версия формата : Version 4 / Version 2
Размер файла : 13,2 Гбайт
Продолжительность : 1 ч. 9 м.
Общий поток : 27,1 Мбит/сек
Дата кодирования : UTC 2018-07-15 16:15:13
Программа кодирования : mkvmerge v25.0.0 ('Prog Noir') 64-bit
Библиотека кодирования : libebml v1.3.6 + libmatroska v1.4.9

Видео
Идентификатор : 1
Формат : HEVC
Формат/Информация : High Efficiency Video Coding
Коммерческое название : HDR10
Профиль формата : Main 10@L5@Main
Идентификатор кодека : V_MPEGH/ISO/HEVC
Продолжительность : 1 ч. 9 м.
Битрейт : 26,1 Мбит/сек
Ширина : 3840 пикселей
Высота : 2160 пикселей
Соотношение сторон : 16:9
Режим частоты кадров : Постоянный
Частота кадров : 25,000 кадров/сек
Цветовое пространство : YUV
Субдискретизация насыщенности : 4:2:0
Битовая глубина : 10 бит
Бит/(Пиксели*Кадры) : 0.126
Размер потока : 12,7 Гбайт (96%)
Default : Да
Forced : Нет
Цветовой диапазон : Limited
Основные цвета : BT.2020
Характеристики трансфера : PQ
Коэффициенты матрицы : BT.2020 non-constant
MasteringDisplay_ColorPrimaries : Display P3
MasteringDisplay_Luminance : min: 0.0050 cd/m2, max: 1000 cd/m2

Аудио #1
Идентификатор : 2
Формат : E-AC-3
Формат/Информация : Enhanced Audio Coding 3
Идентификатор кодека : A_EAC3
Продолжительность : 1 ч. 9 м.
Вид битрейта : Постоянный
Битрейт : 640 Кбит/сек
Каналы : 6 каналов
Расположение каналов : Front: L C R, Side: L R, LFE
Частота : 48,0 КГц
Частота кадров : 187,500 кадров/сек (256 SPF)
Метод сжатия : С потерями
Задержка видео : 14 мс.
Размер потока : 320 Мбайт (2%)
Язык : English
ServiceKind : Complete Main
Default : Нет
Forced : Нет

Аудио #2
Идентификатор : 3
Формат : AC-3
Формат/Информация : Audio Coding 3
Идентификатор кодека : A_AC3
Продолжительность : 1 ч. 9 м.
Вид битрейта : Постоянный
Битрейт : 384 Кбит/сек
Каналы : 6 каналов
Расположение каналов : Front: L C R, Side: L R, LFE
Частота : 48,0 КГц
Частота кадров : 31,250 кадров/сек (1536 SPF)
Битовая глубина : 16 бит
Метод сжатия : С потерями
Задержка видео : 24 мс.
Размер потока : 192 Мбайт (1%)
Заголовок : AlexFilm
Язык : Russian
ServiceKind : Complete Main
Default : Да
Forced : Нет

Текст
Идентификатор : 4
Формат : UTF-8
Идентификатор кодека : S_TEXT/UTF8
Идентификатор кодека/Информация : UTF-8 Plain Text
Продолжительность : 1 ч. 8 м.
Битрейт : 123 бит/сек
ElementCount : 1274
Размер потока : 61,7 Кбайт (0%)
Заголовок : Субтитры
Язык : Russian
Default : Нет
Forced : Нет
pb.wtf



Скачать Гранд тур через торрент https://img11.lostpic.net/2018/07/20/7756ed7c34bd17a12a81ee9460d6e866.png Скачать фильм Гранд тур через торрент бесплантно в хорошем качестве Описание: Предлагаем вашему вниманию долгожданный многими фанатами автомобилей проект с легендарными ведущими Джереми Кларксоном, Джеймом ... 10 10 3
Info! Золотая раздача, скачанное не засчитывается.
Торрент: Зарегистрирован [2018-07-20 10:14] · скачан: 2 раз
Статус: √ проверено
Размер: 139.01 GB
Как cкачать? Как скачать Гранд тур через торрент | qTorrent

% Раздел Тема Автор DL S | L
Автоспорт [ 64.15 GB ] Гранд тур / The Grand Tour / Сезон: 2 / Серии: 1-11 из 11 [2017 Автошоу WEB-DL 1080p] 2xMVO [AlexFilm NewStudio] bober100 Скачать
3 | 0
Автоспорт [ 23.09 GB ] Гранд тур / The Grand Tour / Сезон: 2 / Серии: 1-11 из 11 [2017 Автошоу WEBRip 720p ] MVO [Jaskier] bober100 Скачать
1 | 0
Автоспорт [ 24.99 GB ] Гранд Тур / The Grand Tour / Сезон 2 / Серии 1-11 из 11 [2017. Авто-шоу WEBRip 720p] [MVO] killermax2013 Скачать
1 | 0
Автоспорт [ 8.3 GB ] Гранд Тур / The Grand Tour / Сезон 2 / Серии 1-11 из 11 [2017. Авто-шоу WEBRip] [MVO] killermax2013 Скачать
5 | 0
Автоспорт [ 60.98 GB ] Гранд тур / The Grand Tour / Сезон: 2 / Серии: 1-11 из 11 [2017 Автошоу WEBRip 1080p] MVO [Jaskier] bober100 Скачать
1 | 0
Автоспорт [ 8.58 GB ] Гранд тур / The Grand Tour / Сезон: 2 / Серии: 1-11 из 11 [2017 Автошоу WEBRip] MVO [Jaskier] bober100 Скачать
1 | 0


>> Регистрируемся здесь <<






Отзывы и комментарии о схеме читаем и пишем здесь: ---> Отзывы и комментарии о схеме

Новые благодарочки в телеграм довольных пользователей:
скриншот   скриншот   скриншот   скриншот   скриншот
    Дорогой пользователь! Огромная просьба, поблагодарите релизера, оцените раздачу и оставьте свои комментарий, если Вы скачали Гранд тур через торрент бесплатно! Внесите свою лепту в развитие PiratBit!
    Комментировать посты могут только пользователи прошедшие не сложную регистрацию
    Показать сообщения:    

    Гранд тур через торрент
    Скачать бесплатно Гранд тур
    Гранд тур скачать торрент
    Гранд тур смотреть онлайн
    Cкачать фильм Гранд тур бесплатно
    Гранд тур скачать торрент в хорошем качестве
    Гранд тур смотреть онлайн бесплатно в хорошем качестве


    Вы не можете начинать темы
    Вы не можете отвечать на сообщения
    Вы не можете редактировать свои сообщения
    Вы не можете удалять свои сообщения
    Вы не можете голосовать в опросах
    Вы не можете прикреплять файлы к сообщениям
    Вы можете скачивать файлы